+ ตอบกลับกระทู้
สรุปผลการค้นหา 1 ถึง 7 จากทั้งหมด 7
  1. #1
    Administrators รูปส่วนตัว Duckload.us
    สมัครเมื่อ
    Dec 2010
    โพสต์
    114,385
    Thanks
    7
    Thanked 120,589 Times in 54,259 Posts

    Question [ฝรั่ง]-(หนังเก่าเราเก็บ)**The Golden Voyage of Sinbad (1973)ซินแบดบุกแดนมหัศจรรย์**[เสียงอักฤษDTS : บรรยายไทยPGSคมชัด+อังกฤษ]-Encode.H.264.1080p. [Modified]-[Soundtrack บรรยายไทย]



    นี่คือการผจญภัยที่น่าตื่นตาตื่นใจ ท่ามกลางดินแดนลึกลับในสมัยโบราณ ที่เต็มไปด้วยสัตว์ประหลาดอันเหลือเชื่อ ซินแบด (จอห์น ฟิลลิป ลอว์) เจ้าชายแห่งกรุงแบกแดดและกะลาสีระดับตำนาน ค้นพบแผนที่ที่น่าสนใจ จึงแล่นเรือไปยังเกาะเลอมูเรียที่เขาไม่เคยรู้จักมาก ่อน พร้อมกับทาสสาวแสนสวยชื่อมาร์เกียน่า (แคโรไลน์ มันโร) และอัครเสนาบดีแห่งดินแดนมาราเบีย แต่ซินแบดต้องเผชิญอุปสรรค เมื่อเจ้าชายคูรา (ทอม เบเกอร์) พ่อมดผู้ชั่วร้าย วางแผนควบคุมวิญญาณที่มุ่งร้ายหมายขวัญ หวังจะทำลายการเดินทางในครั้งนี้ แต่ซินแบดก็ไปถึงเลอมูเรียจนได้ แม้คูราจะร่ายเวทมนตร์ให้รูปแกะสลักยักษ์บนหัวเรือขอ งซินแบดมีชีวิตขึ้นมา เพื่อขัดขวางซินแบด เมื่อไปถึงเลอมูเรีย ซินแบดกับลูกเรือก็ต้องผจญกับรูปปั้นหกมือที่กวัดแกว ่งดาบไปมา เซนทอร์ตาเดียว และนกกริฟฟิน และในท้ายที่สุด ซินแบดก็ปะทะกับคูราแบบตัวต่อตัวในการดวล จนกว่าจะมีใครตายไปข้างนึง

    Video
    ID : 1
    Format : AVC
    Format/Info : Advanced Video Codec
    Format profile : [email protected]
    Format settings : CABAC / 4 Ref Frames
    Format settings, CABAC : Yes
    Format settings, Reference frames : 4 frames
    Codec ID : V_MPEG4/ISO/AVC
    Duration : 1 h 44 min
    Bit rate : 9 318 kb/s
    Width : 1 792 pixels
    Height : 1 080 pixels
    Display aspect ratio : 5:3
    Frame rate mode : Constant
    Frame rate : 23.976 (24000/1001) FPS
    Color space : YUV
    Chroma subsampling : 4:2:0
    Bit depth : 8 bits
    Scan type : Progressive
    Bits/(Pixel*Frame) : 0.201
    Stream size : 6.83 GiB (86%)
    Writing library : x264 core 144 r2525 40bb568
    Encoding settings : cabac=1 / ref=4 / deblock=1:0:0 / analyse=0x3:0x133 / me=umh / subme=8 / psy=1 / psy_rd=1.00:0.00 / mixed_ref=1 / me_range=16 / chroma_me=1 / trellis=1 / 8x8dct=1 / cqm=0 / deadzone=21,11 / fast_pskip=0 / chroma_qp_offset=-2 / threads=12 / lookahead_threads=2 / sliced_threads=0 / nr=0 / decimate=1 / interlaced=0 / bluray_compat=0 / constrained_intra=0 / bframes=3 / b_pyramid=2 / b_adapt=1 / b_bias=0 / direct=1 / weightb=1 / open_gop=0 / weightp=2 / keyint=250 / keyint_min=23 / scenecut=40 / intra_refresh=0 / rc_lookahead=40 / rc=2pass / mbtree=1 / bitrate=9318 / ratetol=1.0 / qcomp=0.60 / qpmin=0 / qpmax=69 / qpstep=4 / cplxblur=20.0 / qblur=0.5 / ip_ratio=1.40 / aq=1:1.00
    Language : English
    Default : Yes
    Forced : No

    Audio
    ID : 2
    Format : DTS
    Format/Info : Digital Theater Systems
    Codec ID : A_DTS
    Duration : 1 h 44 min
    Bit rate mode : Constant
    Bit rate : 1 509 kb/s
    Channel(s) : 6 channels
    Channel layout : C L R Ls Rs LFE
    Sampling rate : 48.0 kHz
    Frame rate : 93.750 FPS (512 SPF)
    Bit depth : 24 bits
    Compression mode : Lossy
    Stream size : 1.11 GiB (14%)
    Title : English
    Language : English
    Default : Yes
    Forced : No

    Text #1
    ID : 3
    Format : PGS
    Muxing mode : zlib
    Codec ID : S_HDMV/PGS
    Codec ID/Info : Picture based subtitle format used on BDs/HD-DVDs
    Duration : 1 h 42 min
    Bit rate : 16.8 kb/s
    Count of elements : 1376
    Stream size : 12.3 MiB (0%)
    Title : Tahoma
    Language : Thai
    Default : Yes
    Forced : No

    Text #2
    ID : 4
    Format : PGS
    Muxing mode : zlib
    Codec ID : S_HDMV/PGS
    Codec ID/Info : Picture based subtitle format used on BDs/HD-DVDs
    Duration : 1 h 42 min
    Bit rate : 18.9 kb/s
    Count of elements : 1376
    Stream size : 13.8 MiB (0%)
    Title : AngsanaUPC
    Language : Thai
    Default : No
    Forced : No

    Text #3
    ID : 5
    Format : PGS
    Muxing mode : zlib
    Codec ID : S_HDMV/PGS
    Codec ID/Info : Picture based subtitle format used on BDs/HD-DVDs
    Duration : 1 h 42 min
    Bit rate : 17.0 kb/s
    Count of elements : 1376
    Stream size : 12.5 MiB (0%)
    Title : DilleniaUPC
    Language : Thai
    Default : No
    Forced : No

    Text #4
    ID : 6
    Format : UTF-8
    Codec ID : S_TEXT/UTF8
    Codec ID/Info : UTF-8 Plain Text
    Duration : 1 h 42 min
    Bit rate : 27 b/s
    Count of elements : 786
    Stream size : 20.8 KiB (0%)
    Title : English
    Language : English
    Default : No
    Forced : No




    Download: cornfile
    http://cornfile.com/0ler8nt89vr9
    Download: mekafile
    http://www.mekafile.com/dl.php?f=2Uc196bXPZZa

  2. #2
    Member
    สมัครเมื่อ
    Jan 2014
    โพสต์
    43
    Thanks
    3
    Thanked 0 Times in 0 Posts
    ผิดเรื่อง หรือปล่าวครับ

  3. #3
    Senior Member
    สมัครเมื่อ
    Jul 2012
    โพสต์
    6,721
    Thanks
    0
    Thanked 0 Times in 0 Posts
    ดูชื่อแล้วน่าจะเป็นภาคแรก

  4. #4
    Senior Member
    สมัครเมื่อ
    Jun 2014
    โพสต์
    3,791
    Thanks
    0
    Thanked 0 Times in 0 Posts
    ขอบคุณครับ

  5. #5
    Senior Member รูปส่วนตัว ksurachai
    สมัครเมื่อ
    Nov 2019
    โพสต์
    148
    Thanks
    53
    Thanked 0 Times in 0 Posts
    คนละภาคจ้า

  6. #6
    Junior Member
    สมัครเมื่อ
    May 2012
    โพสต์
    23
    Thanks
    0
    Thanked 0 Times in 0 Posts
    กลายเป็น 7th voyage of sinbad แก้ไขให้หน่อยครับขอเป็น golden voyage of sinbad ครับ

  7. #7
    Senior Member
    สมัครเมื่อ
    Jun 2012
    โพสต์
    1,324
    Thanks
    0
    Thanked 1 Time in 1 Post
    ขอบคุณครับ

+ ตอบกลับกระทู้

ข้อมูลกระทู้

Users Browsing this Thread

ในขณะนี้มี 1 ท่านดูกระทู้อยู่. (0 สมาชิกและ 1 ผู้เยี่ยมชม)

     

กฎการโพสต์ข้อความ

  • ท่าน ไม่สามารถ ตั้งกระทู้ใหม่ได้
  • ท่าน ไม่สามารถ ตอบกระทู้ได้
  • ท่าน ไม่สามารถ แนบไฟล์ได้
  • ท่าน ไม่สามารถ แก้ไขข้อความโพสต์ได้
  • BB code สถานะ เปิด
  • Smilies สถานะ เปิด
  • [IMG] สถานะ เปิด
  • HTML สถานะ ปิด