ซีรีย์จีน เจาเหยา จอมมารโลกต้องจำ The Legends (2019) ซับไทย เรื่องย่อ ในขณะที่พยายามจะนำดาบวานจุนบรรพบุรุษของเธอลู Zhao ยาวถูกซุ่มโจมตีโดยสิบนิกายที่เป็นอมตะและเชื่อว่าหล ี่เฉินหยานเข้าใจผิดเกี่ยวกับเหตุการณ์หลังจากเข้าใจ ผิดว่าเขาเป็นลูกชายของผู้นำลัทธิก่อนหน้านี้ ห้าปีต่อมาหลี่เฉินหลันดำรงตำแหน่งผู้นำลัทธิและ Zhao Yao ตัดสินใจแก้แค้นอย่างแน่นอนด้วยความช่วยเหลือของผู้ฝ ึกฝน Qin Zhi Yan แม้จะตกหลุมรักเขาแทนอย่างช้าๆ

Video
ID : 1
Format : AVC
Format/Info : Advanced Video Codec
Format profile : [email protected]
Format settings : CABAC / 4 Ref Frames
Format settings, CABAC : Yes
Format settings, ReFrames : 4 frames
Codec ID : V_MPEG4/ISO/AVC
Duration : 40 min 57 s
Bit rate : 3 946 kb/s
Width : 1 920 pixels
Height : 1 080 pixels
Display aspect ratio : 16:9
Frame rate mode : Constant
Frame rate : 25.000 FPS
Color space : YUV
Chroma subsampling : 4:2:0
Bit depth : 8 bits
Scan type : Progressive
Bits/(Pixel*Frame) : 0.076
Stream size : 1.13 GiB (94%)
Default : Yes
Forced : No

Audio #1
ID : 2
Format : AC-3
Format/Info : Audio Coding 3
Commercial name : Dolby Digital
Codec ID : A_AC3
Duration : 40 min 57 s
Bit rate mode : Constant
Bit rate : 128 kb/s
Channel(s) : 2 channels
Channel layout : L R
Sampling rate : 48.0 kHz
Frame rate : 31.250 FPS (1536 SPF)
Bit depth : 16 bits
Compression mode : Lossy
Stream size : 37.5 MiB (3%)
Language : Thai
Service kind : Complete Main
Default : Yes
Forced : No

Audio #2
ID : 3
Format : AC-3
Format/Info : Audio Coding 3
Commercial name : Dolby Digital
Codec ID : A_AC3
Duration : 40 min 57 s
Bit rate mode : Constant
Bit rate : 128 kb/s
Channel(s) : 2 channels
Channel layout : L R
Sampling rate : 48.0 kHz
Frame rate : 31.250 FPS (1536 SPF)
Bit depth : 16 bits
Compression mode : Lossy
Stream size : 37.5 MiB (3%)
Language : Chinese
Service kind : Complete Main
Default : No
Forced : No

Text
ID : 4
Format : PGS
Muxing mode : zlib
Codec ID : S_HDMV/PGS
Codec ID/Info : Picture based subtitle format used on BDs/HD-DVDs
Duration : 36 min 23 s
Bit rate : 32.8 kb/s
Count of elements : 888
Stream size : 8.53 MiB (1%)
Language : Thai
Default : Yes
Forced : No






1
http://www.filecondo.com/dl.php?f=Ddb8771I4kV7
2
http://www.filecondo.com/dl.php?f=F93f261I4kYZ
3
http://www.filecondo.com/dl.php?f=K3a5771I4kZY
4
http://www.filecondo.com/dl.php?f=c961b41I4l0W
5
http://www.filecondo.com/dl.php?f=f324541I4l1U
6
http://www.filecondo.com/dl.php?f=R453971I4l2R
7
http://www.filecondo.com/dl.php?f=e5c0f71I4l3Q
8
http://www.filecondo.com/dl.php?f=5054dd1I4l4N
9
http://www.filecondo.com/dl.php?f=Tb34e41I4l5M
10
http://www.filecondo.com/dl.php?f=656dde1I4kW5
11
http://www.filecondo.com/dl.php?f=m1fb271I4kX3
12
http://www.filecondo.com/dl.php?f=Vf8f791I4kY1
13
http://www.filecondo.com/dl.php?f=t4bb611I9pW6
14
http://www.filecondo.com/dl.php?f=Hd02411I9pX3
15
http://www.filecondo.com/dl.php?f=e336401I8P6B
16
http://www.filecondo.com/dl.php?f=0c99051I8P7z
17
http://www.filecondo.com/dl.php?f=K44dff1IbZiP
18
http://www.filecondo.com/dl.php?f=c38eac1IbZjO
19
http://www.filecondo.com/dl.php?f=A3ad5a1IdRCp
20
http://www.filecondo.com/dl.php?f=099f491IdRDw
21
http://www.filecondo.com/dl.php?f=Vca0c21Iu61s
22
http://www.filecondo.com/dl.php?f=za1c781Iu62r
23
http://www.filecondo.com/dl.php?f=640a711Iu63u
24
http://www.filecondo.com/dl.php?f=O079101Iu64n
25
http://www.filecondo.com/dl.php?f=9f33791ItrPy
http://www.filecondo.com/dl.php?f=Q3d90b1IC9Vc srt
26
http://www.filecondo.com/dl.php?f=N46e3c1ItrQv
http://www.filecondo.com/dl.php?f=U522771IC9W9 srt
27
http://www.filecondo.com/dl.php?f=M6a5631ItrRt
28
http://www.filecondo.com/dl.php?f=rded171ItrSr
29
http://www.filecondo.com/dl.php?f=p2070e1ItrTp
30
http://www.filecondo.com/dl.php?f=Ma25291ItrUo
31
http://www.filecondo.com/dl.php?f=80dde61IC9Xh
32
http://www.filecondo.com/dl.php?f=Uf19f41IC9Yf
33
http://www.filecondo.com/dl.php?f=92635d1IC9Zf
34
http://www.filecondo.com/dl.php?f=C1a5c41ICa0b
35
http://www.filecondo.com/dl.php?f=v4d0b21ICa1a
36
http://www.filecondo.com/dl.php?f=g1898c1ICa28