+ ตอบกลับกระทู้
สรุปผลการค้นหา 1 ถึง 2 จากทั้งหมด 2
  1. #1
    Administrators รูปส่วนตัว Duckload.us
    สมัครเมื่อ
    Dec 2010
    โพสต์
    118,664
    Thanks
    7
    Thanked 124,655 Times in 55,802 Posts

    Lightbulb [ญี่ปุ่น]-Fate stay night Heavens Feel - II. Lost Butterfly [The Movie][BD-Rip 1080P HEVC AAC]-Blu-ray.H.265.1080p. [rip from Master]-[Soundtrack บรรยายไทย (แปล)]



    Video: HEVC(x265) 10bit Main 1080p (Blu-ray) [email protected]
    Audio: Japanese AAC 2.0ch
    Subtitle: Thai

    เรื่องย่อ : สงครามครั้งใหม่ได้เริ่มขึ้นอีกครั้ง ณ เมืองฟุยุกิ เมื่อ 10 ปีให้หลังจากสงครามครั้งที่แล้ว แต่แล้ว การมาของมาโต้ โซเค็น ผู้เป็นหนึ่งในสามตระกูลที่สร้างสงครามจอกศักดิ์สิทธ ิ์ ทำให้สิ่งต่างๆเริ่มบิดเบี้ยวและเลวร้ายยิ่งขึ้น เมื่อโซเค็นอัญเชิญเซอร์วานท์ แอสซาซินที่แท้จริงออกมา เงามืดที่ไม่มีใครรู้จักครอบคลุมเมือง สังหารเหล่ามาสเตอร์ และเซอร์วานท์ทีละคน
    เอมิยะ ชิโร่ ผู้ซึ่งได้ต่อสู้ในฐานะมาสเตอร์ในสงครามครั้งนี้ได้ร ับบาดเจ็บและสูญเสียเซอร์วานท์ เซเบอร์ไป ด้วยการตัดสินใจที่จะปกป้องมาโต้ ซากุระ เขาจึงปฏิเสธที่จะออกจากสนามรบ ในขณะที่ซากุระกังวลเกี่ยวกับชิโร่นั้น เธอเองก็ต้องเองพัวพันกับชะตากรรมของตนในฐานะจอมเวท

    Screenshot




    Format : Matroska
    Format version : Version 4
    File size : 2.60 GiB
    Duration : 1 h 57 min
    Overall bit rate : 3 177 kb/s
    Encoded date : UTC 2019-09-07 14:37:22
    Writing application : mkvmerge v37.0.0 ('Leave It') 64-bit
    Writing library : libebml v1.3.9 + libmatroska v1.5.2
    Cover : Yes
    Attachments : cover.jpg

    Video
    ID : 1
    Format : HEVC
    Format/Info : High Efficiency Video Coding
    Format profile : Main [email protected]@Main
    Codec ID : V_MPEGH/ISO/HEVC
    Duration : 1 h 57 min
    Bit rate : 2 906 kb/s
    Width : 1 920 pixels
    Height : 1 080 pixels
    Display aspect ratio : 16:9
    Frame rate mode : Constant
    Frame rate : 24.000 FPS
    Color space : YUV
    Chroma subsampling : 4:2:0
    Bit depth : 10 bits
    Bits/(Pixel*Frame) : 0.058
    Stream size : 2.38 GiB (91%)
    Title : By O3O
    Default : Yes
    Forced : No

    Audio
    ID : 2
    Format : AAC LC
    Format/Info : Advanced Audio Codec Low Complexity
    Codec ID : A_AAC-2
    Duration : 1 h 57 min
    Bit rate : 265 kb/s
    Channel(s) : 2 channels
    Channel layout : L R
    Sampling rate : 48.0 kHz
    Frame rate : 46.875 FPS (1024 SPF)
    Compression mode : Lossy
    Delay relative to video : -21 ms
    Stream size : 225 MiB (8%)
    Title : 2.0 JPN
    Language : Japanese
    Default : Yes
    Forced : No

    http://www.filecondo.com/dl.php?f=3914df1J3dRK fix

  2. The Following User Says Thank You to Duckload.us For This Useful Post:

    Sherlock (02-18-2020)

  3. #2
    Junior Member
    สมัครเมื่อ
    Feb 2020
    โพสต์
    11
    Thanks
    0
    Thanked 0 Times in 0 Posts
    ไฟล์เสียครับ

+ ตอบกลับกระทู้

ข้อมูลกระทู้

Users Browsing this Thread

ในขณะนี้มี 1 ท่านดูกระทู้อยู่. (0 สมาชิกและ 1 ผู้เยี่ยมชม)

     

กฎการโพสต์ข้อความ

  • ท่าน ไม่สามารถ ตั้งกระทู้ใหม่ได้
  • ท่าน ไม่สามารถ ตอบกระทู้ได้
  • ท่าน ไม่สามารถ แนบไฟล์ได้
  • ท่าน ไม่สามารถ แก้ไขข้อความโพสต์ได้
  • BB code สถานะ เปิด
  • Smilies สถานะ เปิด
  • [IMG] สถานะ เปิด
  • HTML สถานะ ปิด