+ ตอบกลับกระทู้
สรุปผลการค้นหา 1 ถึง 3 จากทั้งหมด 3
  1. #1
    Administrators รูปส่วนตัว Duckload.us
    สมัครเมื่อ
    Dec 2010
    โพสต์
    112,881
    Thanks
    7
    Thanked 118,759 Times in 53,714 Posts

    Lightbulb [ญี่ปุ่น]-Eureka Seven Hi-Evolution 02 [The Movie][BD-Rip 1080P HEVC AAC]-Blu-ray.H.265.1080p. [rip from Master]-[Soundtrack บรรยายไทย (แปล)]



    Video: HEVC(x265) 10bit Main 1080p (Blu-ray) [email protected]
    Audio: Japanese AAC 2.0ch
    Subtitle: Thai

    เรื่องย่อ : ในภาพยนตร์ภาคนี้ อาเนโมเน่ จะเป็นตัวเอกหลัก ในฐานะเด็กหญิงที่สูญเสียพ่อไปในการต่อสู้ ณ กรุงโตเกียวเมื่อเจ็ดปีก่อนภาพยนตร์จะเริ่มเรื่อง ทำให้เธอต้องอยู่ตัวคนเดียวกับ กัลลิเวอร์ ตุ๊กตาของเธอ และมี AI โดมินิคิดส์ เป็นที่พึ่งทางใจของเธอ ในเนื้อเรื่องปัจจุบัน อาเนโมเน่ เป็นปัจจัยหลักของหน่วยทดลองที่ใช้ชื่อว่า แอซิด เพื่อทำการต่อสู้กับยูเรก้าตัวที่เจ็ด ยูเรก้าเซเว่น ศัตรูที่กวาดล้างมนุษยชาติไปแล้วกว่า 2,600 ล้านคน ในภาวะใกล้สูญสิ้นมนุษย์ที่เหลือฝากความหวังไว้กับอา เนโมเน่ ในขณะที่เธอดำดิ่งเข้าไปภายใน ยูเรก้าเซเว่น

    Screenshot




    Format : Matroska
    Format version : Version 4
    File size : 1.51 GiB
    Duration : 1 h 34 min
    Overall bit rate : 2 287 kb/s
    Encoded date : UTC 2019-09-07 13:04:20
    Writing application : mkvmerge v37.0.0 ('Leave It') 64-bit
    Writing library : libebml v1.3.9 + libmatroska v1.5.2
    Cover : Yes
    Attachments : cover.jpg

    Video
    ID : 1
    Format : HEVC
    Format/Info : High Efficiency Video Coding
    Format profile : Main [email protected]@Main
    Codec ID : V_MPEGH/ISO/HEVC
    Duration : 1 h 34 min
    Bit rate : 2 059 kb/s
    Width : 1 920 pixels
    Height : 1 080 pixels
    Display aspect ratio : 16:9
    Frame rate mode : Constant
    Frame rate : 23.976 (24000/1001) FPS
    Color space : YUV
    Chroma subsampling : 4:2:0
    Bit depth : 10 bits
    Bits/(Pixel*Frame) : 0.041
    Stream size : 1.36 GiB (90%)
    Title : By O3O
    Default : Yes
    Forced : No

    Audio
    ID : 2
    Format : AAC LC
    Format/Info : Advanced Audio Codec Low Complexity
    Codec ID : A_AAC-2
    Duration : 1 h 34 min
    Bit rate : 226 kb/s
    Channel(s) : 2 channels
    Channel layout : L R
    Sampling rate : 48.0 kHz
    Frame rate : 46.875 FPS (1024 SPF)
    Compression mode : Lossy
    Delay relative to video : -21 ms
    Stream size : 153 MiB (10%)
    Title : 2.0 JPN
    Language : Japanese
    Default : Yes
    Forced : No

    Eureka Seven Hi-Evolution 02 [BD-Rip 1080P HEVC AAC][O3O].rar fix
    http://www.filecondo.com/dl.php?f=1834881J96AV

  2. #2
    Junior Member
    สมัครเมื่อ
    Feb 2020
    โพสต์
    1
    Thanks
    0
    Thanked 0 Times in 0 Posts
    โหลดไม่ได้จ้า

  3. #3
    Administrators รูปส่วนตัว Duckload.us
    สมัครเมื่อ
    Dec 2010
    โพสต์
    112,881
    Thanks
    7
    Thanked 118,759 Times in 53,714 Posts
    อ้างอิง โพสต์ต้นฉบับโดยคุณ promos ดูโพสต์
    โหลดไม่ได้จ้า
    เรียนแจ้ง แก้ไขแล้วครับ

+ ตอบกลับกระทู้

ข้อมูลกระทู้

Users Browsing this Thread

ในขณะนี้มี 1 ท่านดูกระทู้อยู่. (0 สมาชิกและ 1 ผู้เยี่ยมชม)

     

กฎการโพสต์ข้อความ

  • ท่าน ไม่สามารถ ตั้งกระทู้ใหม่ได้
  • ท่าน ไม่สามารถ ตอบกระทู้ได้
  • ท่าน ไม่สามารถ แนบไฟล์ได้
  • ท่าน ไม่สามารถ แก้ไขข้อความโพสต์ได้
  • BB code สถานะ เปิด
  • Smilies สถานะ เปิด
  • [IMG] สถานะ เปิด
  • HTML สถานะ ปิด