+ ตอบกลับกระทู้
สรุปผลการค้นหา 1 ถึง 3 จากทั้งหมด 3
  1. #1
    Administrators รูปส่วนตัว Duckload.us
    สมัครเมื่อ
    Dec 2010
    โพสต์
    111,085
    Thanks
    7
    Thanked 116,419 Times in 53,061 Posts

    Question [ฝรั่ง]-[NetFlix 4K SDR WEBRip] The Siege of Jadotville (2016) จาด็อทวิลล์ สมรภูมิแผ่นดินเดือด พากย์อังกฤษ DD5.1 + ซับไทย - อังกฤษ SRT From Retail-4K Blu-ray.AC-3.2160p. [Modified]-[Soundtrack บรรยายไทย]




    The Siege of Jadotville



    Rating: 7.3/10 Year: 2016 Genres: Action / Biography / Drama / Thriller / War Runtime: 108 min Language: English / Irish / French Director: Richie Smyth Writers: Kevin Brodbin / Declan Power Cast: Richard Lukunku / Danny Sapani / Andrew Stockโ€ฆ Plot:

    In 1961, the UN sends an Irish peacekeeper troop commanded by Commandant Pat Quinlan to Katanga, in Congo, to protect the inhabitants of the mining town of Jadotville in the beginning of a civil war. Meanwhile the UN advisor Dr. Conor Cruise O'Brien launches a military attack named Operation Morthor against the French and Belgian mercenaries. Soon there is a reprisal from the mercenaries and Quinlan and his men are left under siege by a huge number of Katangese and mercenary troops. Will the Irish soldiers resist the attack? Written by Claudio Carvalho, Rio de Janeiro, Brazil











    ชื่ออังกฤษ : The Siege of Jadotville
    ชื่อไทย : จาด็อทวิลล์ สมรภูมิแผ่นดินเดือด
    ประเภท : Action, Drama, Thriller
    วันที่เข้าฉาย : 19 September 2016 (Ireland)
    ผู้กำกับ : Richie Smyth
    นักแสดง : Jamie Dornan, Jason O'Mara, Mark Strong
    เรื่องย่อ :
    (สร้างจากเหตุการณ์จริง) เมื่อเดือนกันยายน ปี 1961 ทหารไอริช จำนวน 150 นายได้เข้าร่วมเป็นส่วนหนึ่งของกองกำลังรักษาสันติภา พขององค์การสหประชาชาติ (UN) พวกเขาถูกส่งไปประจำการ ณ แจด็อตวิลล์ สาธารณรัฐประชาธิปไตยคองโก
    แต่แล้ววันหนึ่งจากเหตุการณ์ความไม่สงบและสถานการณ์อ ันคุกรุ่นภายในดินแดน ค่ายของพวกเขาจึงถูกจู่โจมด้วยข้าศึกจำนวนกว่า 3,000 นายที่ทยอยเดินหน้าเข้ามาโจมตีอย่างหนักขึ้นๆ เป็นระลอก
    เหล่าทหารไอริชยืนหยัดต่อสู้อย่างไม่ลดละเป็นเวลา 6 วัน ด้วยจำนวนกองกำลังพลที่น้อยกว่า, กองกำลังเสริมที่ไม่มีวี่แววว่าจะมาเสริมทัพ และอาวุธยุทธภัณฑ์ที่ทยอยหมดลงไปทุกขณะ …


    Code:
    General
    Unique ID                      : 97940903143096936064771407143660574209
    Complete name                  : The Siege of Jadotville (2016) จาด็อทวิลล์ สมรภูมิแผ่นดินเดือด [NF WEBRip SubThai].mkv
    Format                         : Matroska
    Format version                 : Version 4 / Version 2
    File size                      : 12.2 GiB
    Duration                       : 1 h 48 min
    Overall bit rate               : 16.1 Mb/s
    Movie name                     : The.Siege.of.Jadotville.2016.2160p.UHD.NF.WEBRip.HEVC.10bit.SDR.DD5.1.X265-PATiPAT
    Encoded date                   : UTC 2019-09-29 01:44:16
    Writing application            : mkvmerge v37.0.0 ('Leave It') 64-bit
    Writing library                : libebml v1.3.9 + libmatroska v1.5.2
    Cover                          : Yes
    Attachments                    : cover
    
    Video
    ID                             : 1
    Format                         : HEVC
    Format/Info                    : High Efficiency Video Coding
    Format profile                 : Main [email protected]@Main
    Codec ID                       : V_MPEGH/ISO/HEVC
    Duration                       : 1 h 48 min
    Bit rate                       : 15.7 Mb/s
    Width                          : 3 840 pixels
    Height                         : 2 160 pixels
    Display aspect ratio           : 16:9
    Frame rate mode                : Constant
    Frame rate                     : 24.000 FPS
    Color space                    : YUV
    Chroma subsampling             : 4:2:0
    Bit depth                      : 10 bits
    Bits/(Pixel*Frame)             : 0.079
    Stream size                    : 11.9 GiB (98%)
    Default                        : Yes
    Forced                         : No
    Color range                    : Limited
    Color primaries                : BT.709
    Transfer characteristics       : BT.709
    Matrix coefficients            : BT.709
    
    Audio
    ID                             : 2
    Format                         : AC-3
    Format/Info                    : Audio Coding 3
    Format settings, Endianness    : Big
    Codec ID                       : A_AC3
    Duration                       : 1 h 48 min
    Bit rate mode                  : Constant
    Bit rate                       : 384 kb/s
    Channel(s)                     : 6 channels
    Channel positions              : Front: L C R, Side: L R, LFE
    Sampling rate                  : 48.0 kHz
    Frame rate                     : 31.250 FPS (1536 SPF)
    Bit depth                      : 16 bits
    Compression mode               : Lossy
    Stream size                    : 298 MiB (2%)
    Language                       : English
    Service kind                   : Complete Main
    Default                        : Yes
    Forced                         : Yes
    
    Text #1
    ID                             : 3
    Format                         : UTF-8
    Codec ID                       : S_TEXT/UTF8
    Codec ID/Info                  : UTF-8 Plain Text
    Duration                       : 40 s 375 ms
    Bit rate                       : 109 b/s
    Count of elements              : 13
    Stream size                    : 554 Bytes (0%)
    Title                          : Forced
    Language                       : English
    Default                        : No
    Forced                         : No
    
    Text #2
    ID                             : 4
    Format                         : UTF-8
    Codec ID                       : S_TEXT/UTF8
    Codec ID/Info                  : UTF-8 Plain Text
    Duration                       : 1 h 46 min
    Bit rate                       : 49 b/s
    Count of elements              : 1337
    Stream size                    : 38.8 KiB (0%)
    Title                          : SDH
    Language                       : English
    Default                        : No
    Forced                         : No
    
    Text #3
    ID                             : 5
    Format                         : UTF-8
    Codec ID                       : S_TEXT/UTF8
    Codec ID/Info                  : UTF-8 Plain Text
    Duration                       : 1 h 42 min
    Bit rate                       : 77 b/s
    Count of elements              : 1138
    Stream size                    : 58.1 KiB (0%)
    Language                       : Arabic
    Default                        : No
    Forced                         : No
    
    Text #4
    ID                             : 6
    Format                         : UTF-8
    Codec ID                       : S_TEXT/UTF8
    Codec ID/Info                  : UTF-8 Plain Text
    Duration                       : 1 h 42 min
    Bit rate                       : 41 b/s
    Count of elements              : 925
    Stream size                    : 31.0 KiB (0%)
    Language                       : Danish
    Default                        : No
    Forced                         : No
    
    Text #5
    ID                             : 7
    Format                         : UTF-8
    Codec ID                       : S_TEXT/UTF8
    Codec ID/Info                  : UTF-8 Plain Text
    Duration                       : 1 h 42 min
    Bit rate                       : 45 b/s
    Count of elements              : 1005
    Stream size                    : 33.9 KiB (0%)
    Language                       : German
    Default                        : No
    Forced                         : No
    
    Text #6
    ID                             : 8
    Format                         : UTF-8
    Codec ID                       : S_TEXT/UTF8
    Codec ID/Info                  : UTF-8 Plain Text
    Duration                       : 1 h 42 min
    Bit rate                       : 41 b/s
    Count of elements              : 1133
    Stream size                    : 31.3 KiB (0%)
    Language                       : Spanish
    Default                        : No
    Forced                         : No
    
    Text #7
    ID                             : 9
    Format                         : UTF-8
    Codec ID                       : S_TEXT/UTF8
    Codec ID/Info                  : UTF-8 Plain Text
    Duration                       : 1 h 42 min
    Bit rate                       : 38 b/s
    Count of elements              : 1143
    Stream size                    : 29.2 KiB (0%)
    Language                       : Spanish
    Default                        : No
    Forced                         : No
    
    Text #8
    ID                             : 10
    Format                         : UTF-8
    Codec ID                       : S_TEXT/UTF8
    Codec ID/Info                  : UTF-8 Plain Text
    Duration                       : 1 h 42 min
    Bit rate                       : 38 b/s
    Count of elements              : 820
    Stream size                    : 28.9 KiB (0%)
    Language                       : Finnish
    Default                        : No
    Forced                         : No
    
    Text #9
    ID                             : 11
    Format                         : UTF-8
    Codec ID                       : S_TEXT/UTF8
    Codec ID/Info                  : UTF-8 Plain Text
    Duration                       : 1 h 42 min
    Bit rate                       : 43 b/s
    Count of elements              : 1110
    Stream size                    : 32.3 KiB (0%)
    Language                       : French
    Default                        : No
    Forced                         : No
    
    Text #10
    ID                             : 12
    Format                         : UTF-8
    Codec ID                       : S_TEXT/UTF8
    Codec ID/Info                  : UTF-8 Plain Text
    Duration                       : 1 h 42 min
    Bit rate                       : 71 b/s
    Count of elements              : 1099
    Stream size                    : 53.5 KiB (0%)
    Language                       : Hebrew
    Default                        : No
    Forced                         : No
    
    Text #11
    ID                             : 13
    Format                         : UTF-8
    Codec ID                       : S_TEXT/UTF8
    Codec ID/Info                  : UTF-8 Plain Text
    Duration                       : 1 h 42 min
    Bit rate                       : 42 b/s
    Count of elements              : 1147
    Stream size                    : 31.9 KiB (0%)
    Language                       : Italian
    Default                        : No
    Forced                         : No
    
    Text #12
    ID                             : 14
    Format                         : UTF-8
    Codec ID                       : S_TEXT/UTF8
    Codec ID/Info                  : UTF-8 Plain Text
    Duration                       : 1 h 42 min
    Bit rate                       : 36 b/s
    Count of elements              : 1023
    Stream size                    : 27.0 KiB (0%)
    Language                       : Japanese
    Default                        : No
    Forced                         : No
    
    Text #13
    ID                             : 15
    Format                         : UTF-8
    Codec ID                       : S_TEXT/UTF8
    Codec ID/Info                  : UTF-8 Plain Text
    Duration                       : 1 h 42 min
    Bit rate                       : 44 b/s
    Count of elements              : 1152
    Stream size                    : 33.2 KiB (0%)
    Language                       : Korean
    Default                        : No
    Forced                         : No
    
    Text #14
    ID                             : 16
    Format                         : UTF-8
    Codec ID                       : S_TEXT/UTF8
    Codec ID/Info                  : UTF-8 Plain Text
    Duration                       : 1 h 42 min
    Bit rate                       : 41 b/s
    Count of elements              : 932
    Stream size                    : 31.4 KiB (0%)
    Language                       : Norwegian Bokmal
    Default                        : No
    Forced                         : No
    
    Text #15
    ID                             : 17
    Format                         : UTF-8
    Codec ID                       : S_TEXT/UTF8
    Codec ID/Info                  : UTF-8 Plain Text
    Duration                       : 1 h 42 min
    Bit rate                       : 40 b/s
    Count of elements              : 860
    Stream size                    : 30.3 KiB (0%)
    Language                       : Dutch
    Default                        : No
    Forced                         : No
    
    Text #16
    ID                             : 18
    Format                         : UTF-8
    Codec ID                       : S_TEXT/UTF8
    Codec ID/Info                  : UTF-8 Plain Text
    Duration                       : 1 h 42 min
    Bit rate                       : 34 b/s
    Count of elements              : 1122
    Stream size                    : 25.7 KiB (0%)
    Language                       : Polish
    Default                        : No
    Forced                         : No
    
    Text #17
    ID                             : 19
    Format                         : UTF-8
    Codec ID                       : S_TEXT/UTF8
    Codec ID/Info                  : UTF-8 Plain Text
    Duration                       : 1 h 42 min
    Bit rate                       : 43 b/s
    Count of elements              : 1147
    Stream size                    : 32.5 KiB (0%)
    Language                       : Portuguese
    Default                        : No
    Forced                         : No
    
    Text #18
    ID                             : 20
    Format                         : UTF-8
    Codec ID                       : S_TEXT/UTF8
    Codec ID/Info                  : UTF-8 Plain Text
    Duration                       : 1 h 42 min
    Bit rate                       : 41 b/s
    Count of elements              : 1122
    Stream size                    : 30.9 KiB (0%)
    Title                          : Brazilian
    Language                       : Portuguese
    Default                        : No
    Forced                         : No
    
    Text #19
    ID                             : 21
    Format                         : UTF-8
    Codec ID                       : S_TEXT/UTF8
    Codec ID/Info                  : UTF-8 Plain Text
    Duration                       : 1 h 42 min
    Bit rate                       : 42 b/s
    Count of elements              : 857
    Stream size                    : 31.6 KiB (0%)
    Language                       : Swedish
    Default                        : No
    Forced                         : No
    
    Text #20
    ID                             : 22
    Format                         : UTF-8
    Codec ID                       : S_TEXT/UTF8
    Codec ID/Info                  : UTF-8 Plain Text
    Duration                       : 1 h 42 min
    Bit rate                       : 117 b/s
    Count of elements              : 1153
    Stream size                    : 87.7 KiB (0%)
    Language                       : Thai
    Default                        : Yes
    Forced                         : Yes
    
    Text #21
    ID                             : 23
    Format                         : UTF-8
    Codec ID                       : S_TEXT/UTF8
    Codec ID/Info                  : UTF-8 Plain Text
    Duration                       : 1 h 42 min
    Bit rate                       : 45 b/s
    Count of elements              : 1086
    Stream size                    : 34.3 KiB (0%)
    Language                       : Turkish
    Default                        : No
    Forced                         : No
    
    Text #22
    ID                             : 24
    Format                         : UTF-8
    Codec ID                       : S_TEXT/UTF8
    Codec ID/Info                  : UTF-8 Plain Text
    Duration                       : 1 h 42 min
    Bit rate                       : 41 b/s
    Count of elements              : 1153
    Stream size                    : 31.4 KiB (0%)
    Title                          : Simplified
    Language                       : Chinese
    Default                        : No
    Forced                         : No
    
    Text #23
    ID                             : 25
    Format                         : UTF-8
    Codec ID                       : S_TEXT/UTF8
    Codec ID/Info                  : UTF-8 Plain Text
    Duration                       : 1 h 42 min
    Bit rate                       : 42 b/s
    Count of elements              : 1153
    Stream size                    : 31.9 KiB (0%)
    Title                          : Traditional
    Language                       : Chinese
    Default                        : No
    Forced                         : No



    Download: cornfile
    http://cornfile.com/kfulcnpl65mc
    Download: mekafile
    http://www.mekafile.com/dl.php?f=Tnb094bZFfBy

  2. #2
    Senior Member
    สมัครเมื่อ
    Jun 2012
    โพสต์
    1,277
    Thanks
    0
    Thanked 1 Time in 1 Post
    ขอบคุณครับ

  3. #3
    Senior Member
    สมัครเมื่อ
    Jun 2014
    โพสต์
    2,548
    Thanks
    0
    Thanked 0 Times in 0 Posts
    ขอบคุณครับ

+ ตอบกลับกระทู้

ข้อมูลกระทู้

Users Browsing this Thread

ในขณะนี้มี 1 ท่านดูกระทู้อยู่. (0 สมาชิกและ 1 ผู้เยี่ยมชม)

     

กฎการโพสต์ข้อความ

  • ท่าน ไม่สามารถ ตั้งกระทู้ใหม่ได้
  • ท่าน ไม่สามารถ ตอบกระทู้ได้
  • ท่าน ไม่สามารถ แนบไฟล์ได้
  • ท่าน ไม่สามารถ แก้ไขข้อความโพสต์ได้
  • BB code สถานะ เปิด
  • Smilies สถานะ เปิด
  • [IMG] สถานะ เปิด
  • HTML สถานะ ปิด