+ ตอบกลับกระทู้
สรุปผลการค้นหา 1 ถึง 3 จากทั้งหมด 3
  1. #1
    Administrators รูปส่วนตัว Duckload.us
    สมัครเมื่อ
    Dec 2010
    โพสต์
    123,776
    Thanks
    7
    Thanked 128,790 Times in 57,297 Posts

    Lightbulb [ญี่ปุ่น]-[DESB] Kimetsu no Yaiba (2019) / ดาบพิฆาตอสูร (2019) ตอนที่ 1-26 [จบ]-[ซับไทย]-[Demon Emperor]-HDTV.H.265.1080p. [อัดจาก TV]-[Soundtrack บรรยายไทย]




    เรื่องย่อ

    เรื่องราวในยุคไทโช (1912-1926) ทันจิโร่เด็กหนุ่มขายถ่านที่แสนอ่อนโยน วันหนึ่งครอบครัวของเขาถูกอสูรฆ่าตาย ส่วนเนซึโกะ น้องสาวของเขาก็โดนเปลี่ยนเป็นอสูร ในตอนนั้นเองนักล่าอสูรนามว่า โทมิโอกะ งิยู ก็ได้ปรากฏตัวขึ้นและคิดจะกำจัดเนซึโกะ ทว่าเขาก็ต้องประหลาดใจที่เนซึโกะกับทันจิโร่กลับปกป ้องกันและกัน ยิ่งได้เห็นฝีมือการต่อสู้ของทันจิโร่ทำให้ งิยูตัดสินใจส่งตัวพวกเขาไปให้สหายเก่าแก่ของตนเองช่ วยฝึกฝนให้ นั่นจึงเป็นจุดเริ่มต้นการเป็นนักล่าอสูรของทันจิโร่ เพื่อช่วยน้องสาวให้กลับมาเป็นมนุษย์อีกครั้งและเพื่ อตามล่าอสูรที่ฆ่าครอบครัวของเขา...

    ซับไทยโดย Nemuria Fansub ช่วยกันสนับสนุนผู้แปลซับด้วยนะครับ จะได้มีซับไว้อ่านกัน

    General
    Complete name : Kimetsu no Yaiba Ep.1-26 SubTH [End] by Demon Emperor
    Format : Matroska
    Format version : Version 4
    File size : 883 MiB
    Duration : 23 min 40 s
    Overall bit rate : 5 218 kb/s
    Movie name : Kimetsu no Yaiba [email protected] Emperor
    Encoded date : UTC 2019-10-14 02:30:00
    Writing application : mkvmerge v10.0.0 ('To Drown In You') 64bit
    Writing library : libebml v1.3.4 + libmatroska v1.4.5 / Lavf58.20.100
    Cover : Yes
    Attachments : Cover_Kimetsu_no_Yaiba_Demon_Emperor.jpg

    Video
    ID : 1
    Format : HEVC
    Format/Info : High Efficiency Video Coding
    Format profile : [email protected]@Main
    Codec ID : V_MPEGH/ISO/HEVC
    Duration : 23 min 40 s
    Bit rate : 5 085 kb/s
    Width : 1 920 pixels
    Height : 1 080 pixels
    Display aspect ratio : 16:9
    Frame rate mode : Variable
    Frame rate : 23.976 FPS
    Color space : YUV
    Chroma subsampling : 4:2:0
    Bit depth : 8 bits
    Bits/(Pixel*Frame) : 0.102
    Stream size : 861 MiB (97%)
    Title : Kimetsu no Yaiba [email protected] Emperor
    Writing library : x265 1.9:[Windows][GCC 4.9.3][32 bit] 8bit
    Encoding settings : wpp / ctu=64 / min-cu-size=8 / max-tu-size=32 / tu-intra-depth=1 / tu-inter-depth=1 / me=1 / subme=2 / merange=57 / no-rect / no-amp / max-merge=2 / temporal-mvp / no-early-skip / rdpenalty=0 / no-tskip / no-tskip-fast / strong-intra-smoothing / no-lossless / no-cu-lossless / no-constrained-intra / no-fast-intra / open-gop / no-temporal-layers / interlace=0 / keyint=250 / min-keyint=23 / scenecut=40 / rc-lookahead=20 / lookahead-slices=6 / bframes=4 / bframe-bias=0 / b-adapt=2 / ref=3 / limit-refs=3 / no-limit-modes / weightp / no-weightb / aq-mode=1 / qg-size=32 / aq-strength=1.00 / cbqpoffs=0 / crqpoffs=0 / rd=3 / psy-rd=2.00 / rdoq-level=0 / psy-rdoq=0.00 / signh-i-d-e / deblock / sao / no-sao-non-deblock / b-pyramid / cutree / no-intra-refresh / rc=abr / bitrate=5000 / qcomp=0.60 / qpmin=0 / qpmax=51 / qpstep=4 / ipratio=1.40 / pbratio=1.30
    Language : Japanese
    Default : Yes
    Forced : No

    Audio
    ID : 2
    Format : AAC LC
    Format/Info : Advanced Audio Codec Low Complexity
    Codec ID : A_AAC-2
    Duration : 23 min 40 s
    Bit rate : 128 kb/s
    Channel(s) : 2 channels
    Channel layout : L R
    Sampling rate : 44.1 kHz
    Frame rate : 43.066 FPS (1024 SPF)
    Compression mode : Lossy
    Stream size : 21.7 MiB (2%)
    Writing library : Lavc58.35.100 aac
    Language : Japanese
    Default : Yes
    Forced : No






















    21.97 GB
    http://www.filecondo.com/dl.php?f=q2d9fa1Imvdk

  2. The Following 2 Users Say Thank You to Duckload.us For This Useful Post:

    iayamachi (01-23-2021), Wesker_TOT (11-10-2019)

  3. #2
    Senior Member
    สมัครเมื่อ
    Dec 2013
    โพสต์
    2,580
    Thanks
    4,501
    Thanked 0 Times in 0 Posts
    ขอบคุณครับ...

  4. #3
    Senior Member
    สมัครเมื่อ
    Jul 2013
    โพสต์
    1,784
    Thanks
    0
    Thanked 0 Times in 0 Posts
    ขอบคุณครับ

+ ตอบกลับกระทู้

ข้อมูลกระทู้

Users Browsing this Thread

ในขณะนี้มี 1 ท่านดูกระทู้อยู่. (0 สมาชิกและ 1 ผู้เยี่ยมชม)

     

กฎการโพสต์ข้อความ

  • ท่าน ไม่สามารถ ตั้งกระทู้ใหม่ได้
  • ท่าน ไม่สามารถ ตอบกระทู้ได้
  • ท่าน ไม่สามารถ แนบไฟล์ได้
  • ท่าน ไม่สามารถ แก้ไขข้อความโพสต์ได้
  • BB code สถานะ เปิด
  • Smilies สถานะ เปิด
  • [IMG] สถานะ เปิด
  • HTML สถานะ ปิด