+ ตอบกลับกระทู้
สรุปผลการค้นหา 1 ถึง 2 จากทั้งหมด 2
  1. #1
    Administrators รูปส่วนตัว Duckload.us
    สมัครเมื่อ
    Dec 2010
    โพสต์
    108,468
    Thanks
    7
    Thanked 113,452 Times in 52,348 Posts

    Question [ฝรั่ง]-[4k]•The Lion King (2019) : เดอะ ไลอ้อน คิง (2160p x265 10bit)-[พากย์ไทย บรรยายไทย]

    ****

    The Lion King (2019)

    ซิมบ้า เกิดมาเพื่อเป็นราชาอย่างแท้จริง วันที่ซิมบ้าถือกำเนิด เหล่าฝูงสัตว์แซ่ซร้อง โห่ร้องลั่นป่าด้วยความยินดี ซิมบ้าถูกเลี้ยงแบบธรรมดาเหมือนสิงโตตัวน้อยๆซุกซนไป ตามธรรมชาติ และพ่อของซิมบ้าห้ามเด็ดขาดไม่ให้ไปป่าต้องห้าม แต่ซิมบ้าซนถึงขนาดจะเอาชีวิตไม่รอดจากฝูงไฮยีน่าในป ่าต้องห้ามนั้น เมื่อเติบโตขึ้นจึงเข้าใจชีวิตมากขึ้น ซิมบ้าถูก ” มูฟาซ่า “ พ่อของเขา สอนให้เข้าใจสัจธรรม และธรรมของเจ้าป่า ต้องเข้าใจและรักษาสมดุลของชีวิตสัตว์นักล่าทั้งหลาย ในป่านี้ไว้

    สการ์ อาของซิมบ้า เจ้านี่มันร้ายอย่างมากเพราะวางแผนฆ่ามูฟาซ่าและโยนค วามผิดให้ซิมบ้า โดยการคิดแผนร้ายกับฝูงไฮยี่น่าสัตว์ที่เป็นที่รังเก ียจของสังคมสัตว์ในอาณาจักรสิงโต เพราะไอเจ้าฝูงไฮยีน่านี้ไปถึงไหน ความวอดวายบรรลัยเกิดขึ้นที่นั่น สิ่งที่สการ์ต้องการคือ ตำแหน่ง “เจ้าป่า” โดยไม่เคยสนใจว่าจะสร้างความเสียหายให้กับสังคมเท่าไ หร่ ขออย่างเดียวให้ตนเองได้เป็นเจาป่าอยู่ท่ามกลางตำแหน ่งใหญ่โต หลังจากสการ์ขึ้นครองอำนาจ สมดุลแห่งห่วงโซ่เปลี่ยนแปลง ฝูงสัตว์เริ่มอพยพหนีออกจากอาณาจักร เพราะรู้สึกไม่มั่นคงในชีวิตอีกต่อไปสังคมจากความอุด มสมบูรณ์ก็กลายเป็นความแห้งแล้งกันดาร ซิมบ้าจะทำยังไง จะทวงตำแหน่งราชาคืนมาได้หรือไม่

    เรื่องราวของสิงโตแห่งผาทรนง เมื่อเจ้าป่ามูฟาซ่าถูกฆ่าตาย และสการ์น้องชายผู้ริษยา โยนความผิดนี้ให้กับซิมบ้าลูกชายของมูฟาซา ทำให้ซิมบ้าต้องหนีอดีตอันแสนเจ็บปวดและยึดถือคติการ ดำรงชีวิตใหม่คือ “ฮากูน่า มาทาท่า” เรื่องราวของการผจญภัย โชคชะตา และความรัก สร้างจากอนิเมชั่นที่ประสบความสำเร็จ กวาดรายได้ มากถึง 968 ล้านดอลล่าร์สหรัฐฯ

    Code:
    Format version                 : Version 4
    File size                      : 5.72 GiB
    Duration                       : 1 h 58 min
    Overall bit rate               : 6 931 kb/s
    Movie name                     : The Lion King 2019  (2160p x265 10bit ) [UTR]
    Encoded date                   : UTC 2019-10-23 17:02:17
    Writing application            : mkvmerge v17.0.0 ('Be Ur Friend') 64-bit
    Writing library                : libebml v1.3.5 + libmatroska v1.4.8
    Cover                          : Yes
    
    
    Video
    ID                             : 1
    Format                         : HEVC
    Format/Info                    : High Efficiency Video Coding
    Format profile                 : Main [email protected]@Main
    Codec ID                       : V_MPEGH/ISO/HEVC
    Duration                       : 1 h 58 min
    Bit rate                       : 6 000 kb/s
    Width                          : 3 840 pixels
    Height                         : 2 160 pixels
    Display aspect ratio           : 16:9
    Frame rate mode                : Constant
    Frame rate                     : 23.976 (24000/1001) FPS
    Color space                    : YUV
    Chroma subsampling             : 4:2:0
    Bit depth                      : 10 bits
    Bits/(Pixel*Frame)             : 0.030
    
    Default                        : Yes
    Forced                         : No
    
    Audio #1
    ID                             : 2
    Format                         : AAC LC
    Format/Info                    : Advanced Audio Codec Low Complexity
    Codec ID                       : A_AAC-2
    Duration                       : 1 h 58 min
    Bit rate                       : 160 kb/s
    Channel(s)                     : 2 channels
    Channel layout                 : L R
    Sampling rate                  : 48.0 kHz
    Frame rate                     : 46.875 FPS (1024 SPF)
    Compression mode               : Lossy
    Delay relative to video        : 660 ms
    Stream size                    : 135 MiB (2%)
    Title                          : Thai Master From iTunes
    Language                       : Thai
    Default                        : Yes
    Forced                         : Yes
    
    Audio #2
    ID                             : 3
    Format                         : DTS
    Format/Info                    : Digital Theater Systems
    Codec ID                       : A_DTS
    Duration                       : 1 h 58 min
    Bit rate mode                  : Constant
    Bit rate                       : 768 kb/s
    Channel(s)                     : 6 channels
    Channel layout                 : C L R Ls Rs LFE
    Sampling rate                  : 48.0 kHz
    Frame rate                     : 93.750 FPS (512 SPF)
    Bit depth                      : 24 bits
    Compression mode               : Lossy
    Stream size                    : 650 MiB (11%)
    Title                          : English DTS
    Language                       : English
    Default                        : No
    Forced                         : No
    
    Text
    ID                             : 4
    Format                         : UTF-8
    Codec ID                       : S_TEXT/UTF8
    Codec ID/Info                  : UTF-8 Plain Text
    Duration                       : 1 h 55 min
    Bit rate                       : 105 b/s
    Count of elements              : 1358
    Stream size                    : 89.1 KiB (0%)
    Title                          : Thai SRT
    Language                       : Thai
    Default                        : Yes
    Forced                         : No


    Download: cornfile
    http://cornfile.com/zyw5c96npqu3
    Download: mekafile
    http://www.mekafile.com/dl.php?f=Ec8d06c0KuvX

  2. The Following User Says Thank You to Duckload.us For This Useful Post:

    kappa (เมื่อวานนี้)

  3. #2
    Senior Member
    สมัครเมื่อ
    Jul 2012
    โพสต์
    6,241
    Thanks
    0
    Thanked 0 Times in 0 Posts
    ขอบคุณมากจ้า

+ ตอบกลับกระทู้

ข้อมูลกระทู้

Users Browsing this Thread

ในขณะนี้มี 1 ท่านดูกระทู้อยู่. (0 สมาชิกและ 1 ผู้เยี่ยมชม)

     

กฎการโพสต์ข้อความ

  • ท่าน ไม่สามารถ ตั้งกระทู้ใหม่ได้
  • ท่าน ไม่สามารถ ตอบกระทู้ได้
  • ท่าน ไม่สามารถ แนบไฟล์ได้
  • ท่าน ไม่สามารถ แก้ไขข้อความโพสต์ได้
  • BB code สถานะ เปิด
  • Smilies สถานะ เปิด
  • [IMG] สถานะ เปิด
  • HTML สถานะ ปิด