+ ตอบกลับกระทู้
สรุปผลการค้นหา 1 ถึง 3 จากทั้งหมด 3
  1. #1
    Administrators รูปส่วนตัว Duckload.us
    สมัครเมื่อ
    Dec 2010
    โพสต์
    111,263
    Thanks
    7
    Thanked 116,712 Times in 53,142 Posts

    Question [13+] [ฝรั่ง]-Pride and Prejudice and Zombies (2016) เลดี้+ซอมบี้ - [พากย์ไทย+อังกฤษ] [บรรยายไทย+อังกฤษ] 2160p.UHD.Bluray.HDR.Atmos7.1.x265




    เกิดซอมบี้ระบาดจู่โจมลงบนแผ่นดินในนิยายสุดคลาสสิกเ รื่อง Pride and Prejudice นิยายรักสุดคลาสสิกของ “เจน ออสติน”

    เรื่องราวความสัมพันธ์ที่พัวพันยุ่งเหยิงระหว่างคนรั กที่มาจากต่างชนชั้นในศตวรรษที่ 19 ประเทศอังกฤษ ฮีโร่หญิงสุดซ่า อลิซาเบ็ธ เบนเนท (ลิลี่ เจมส์) เป็นผู้เชี่ยวชาญด้านศิลปะการต่อสู้และศาตราวุธทุกแข นง ประกบกับหนุ่มสุดหล่อ “ดาร์ซี่” (แซม ไรลี่ย์) เป็นเพชรฆาตซอมบี้สุดโหด ซึ่งเป็นตัวแทนของความอยุติธรรมในสังคมชนชั้นสูง ขณะที่การระบาดของซอมบี้จะทวีความรุนแรงมากขึ้นทุกที พวกเขาต้องกล้ำกลืนกับความภาคภูมิใจของพวกเขาและเข้า ร่วมกับสมรภูมิที่ชุ่มโชกไปด้วยเลือด


    Duration : 1 h 47 min
    Overall bit rate mode : Variable
    Overall bit rate : 18.5 Mb/s
    Encoded date : UTC 2019-10-30 00:17:39
    Writing application : mkvmerge v38.0.0 ('The Silent Type') 64-bit
    Writing library : libebml v1.3.9 + libmatroska v1.5.2
    Cover : Yes
    Attachments : cover

    Video
    ID : 1
    Format : HEVC
    Format/Info : High Efficiency Video Coding
    Format profile : Main [email protected]@High
    HDR format : SMPTE ST 2086, HDR10 compatible
    Codec ID : V_MPEGH/ISO/HEVC
    Duration : 1 h 47 min
    Bit rate : 11.9 Mb/s
    Width : 3 840 pixels
    Height : 1 600 pixels
    Display aspect ratio : 2.40:1
    Frame rate mode : Constant
    Frame rate : 23.976 (24000/1001) FPS
    Color space : YUV
    Chroma subsampling : 4:2:0 (Type 2)
    Bit depth : 10 bits
    Bits/(Pixel*Frame) : 0.081
    Stream size : 8.96 GiB (64%)
    Writing library : x265 2.6+27-2f3c4158cf35:[Windows][GCC 7.2.0][64 bit] 10bit
    Encoding settings : cpuid=1173503 / frame-threads=3 / numa-pools=8 / wpp / no-pmode / no-pme / no-psnr / no-ssim / log-level=2 / input-csp=1 / input-res=3840x1600 / interlace=0 / total-frames=0 / level-idc=51 / high-tier=1 / uhd-bd=0 / ref=4 / no-allow-non-conformance / repeat-headers / annexb / aud / hrd / info / hash=0 / no-temporal-layers / no-open-gop / min-keyint=23 / keyint=240 / gop-lookahead=0 / bframes=4 / b-adapt=2 / b-pyramid / bframe-bias=0 / rc-lookahead=25 / lookahead-slices=4 / scenecut=40 / radl=0 / no-intra-refresh / ctu=64 / min-cu-size=8 / rect / no-amp / max-tu-size=32 / tu-inter-depth=1 / tu-intra-depth=1 / limit-tu=0 / rdoq-level=2 / dynamic-rd=0.00 / no-ssim-rd / signh-i-d-e / no-tskip / nr-intra=0 / nr-inter=0 / no-constrained-intra / no-strong-intra-smoothing / max-merge=3 / limit-refs=3 / limit-modes / me=3 / subme=3 / merange=57 / temporal-mvp / weightp / no-weightb / no-analyze-src-pics / deblock=-3:-3 / no-sao / no-sao-non-deblock / rd=4 / no-early-skip / rskip / no-fast-intra / no-tskip-fast / no-cu-lossless / no-b-intra / no-splitrd-skip / rdpenalty=0 / psy-rd=2.00 / psy-rdoq=1.00 / no-rd-refine / no-lossless / cbqpoffs=0 / crqpoffs=0 / rc=crf / crf=17.0 / qcomp=0.60 / qpstep=4 / stats-write=0 / stats-read=0 / vbv-maxrate=160000 / vbv-bufsize=160000 / vbv-init=0.9 / crf-max=0.0 / crf-min=0.0 / ipratio=1.40 / pbratio=1.30 / aq-mode=1 / aq-strength=1.00 / cutree / zone-count=0 / no-strict-cbr / qg-size=32 / no-rc-grain / qpmax=69 / qpmin=0 / no-const-vbv / sar=1 / overscan=0 / videoformat=5 / range=0 / colorprim=9 / transfer=16 / colormatrix=9 / chromaloc=1 / chromaloc-top=2 / chromaloc-bottom=2 / display-window=0 / master-display=G(13250,34500)B(7500,3000)R(34000,16000)WP (15635,16450)L(40000000,50) / max-cll=1035,726 / min-luma=0 / max-luma=1023 / log2-max-poc-lsb=8 / vui-timing-info / vui-hrd-info / slices=1 / opt-qp-pps / opt-ref-list-length-pps / no-multi-pass-opt-rps / scenecut-bias=0.05 / no-opt-cu-delta-qp / no-aq-motion / hdr / hdr-opt / no-dhdr10-opt / analysis-save=(null) / analysis-load=(null) / analysis-reuse-level=5 / scale-factor=0 / refine-intra=0 / refine-inter=0 / refine-mv=0 / no-limit-sao / ctu-info=0 / no-lowpass-dct / refine-mv-type=0 / copy-pic=1
    Language : English
    Default : Yes
    Forced : No
    Color range : Limited
    Color primaries : BT.2020
    Transfer characteristics : PQ
    Matrix coefficients : BT.2020 non-constant
    Mastering display color primaries : Display P3
    Mastering display luminance : min: 0.0050 cd/m2, max: 4000 cd/m2
    Maximum Content Light Level : 1035 cd/m2
    Maximum Frame-Average Light Level : 726 cd/m2

    Audio #1
    ID : 2
    Format : MLP FBA 16-ch
    Format/Info : Meridian Lossless Packing FBA with 16-channel presentation
    Commercial name : Dolby TrueHD with Dolby Atmos
    Codec ID : A_TRUEHD
    Duration : 1 h 47 min
    Bit rate mode : Variable
    Bit rate : 4 625 kb/s
    Maximum bit rate : 8 193 kb/s
    Channel(s) : 8 channels
    Channel layout : L R C LFE Ls Rs Lb Rb
    Sampling rate : 48.0 kHz
    Frame rate : 1 200.000 FPS (40 SPF)
    Compression mode : Lossless
    Stream size : 3.47 GiB (25%)
    Title : Atmos
    Language : English
    Default : No
    Forced : No
    Number of dynamic objects : 11
    Bed channel count : 1 channel
    Bed channel configuration : LFE

    Audio #2
    ID : 3
    Format : AC-3
    Format/Info : Audio Coding 3
    Codec ID : A_AC3
    Duration : 1 h 47 min
    Bit rate : 640 kb/s
    Channel(s) : 6 channels
    Sampling rate : 48.0 kHz
    Frame rate : 31.250 FPS (1536 SPF)
    Compression mode : Lossy
    Stream size : 492 MiB (3%)
    Title : AC3 5.1
    Language : English
    Default : Yes
    Forced : No

    Audio #3
    ID : 4
    Format : AAC LC
    Format/Info : Advanced Audio Codec Low Complexity
    Codec ID : A_AAC-2
    Duration : 1 h 47 min
    Bit rate : 449 kb/s
    Channel(s) : 6 channels
    Channel layout : C L R Ls Rs LFE
    Sampling rate : 48.0 kHz
    Frame rate : 46.875 FPS (1024 SPF)
    Compression mode : Lossy
    Stream size : 345 MiB (2%)
    Title : AAC 5.1
    Language : Thai
    Default : No
    Forced : No

    Audio #4
    ID : 5
    Format : AC-3
    Format/Info : Audio Coding 3
    Commercial name : Dolby Digital
    Codec ID : A_AC3
    Duration : 1 h 47 min
    Bit rate mode : Constant
    Bit rate : 640 kb/s
    Channel(s) : 6 channels
    Channel layout : L R C LFE Ls Rs
    Sampling rate : 48.0 kHz
    Frame rate : 31.250 FPS (1536 SPF)
    Bit depth : 16 bits
    Compression mode : Lossy
    Stream size : 492 MiB (3%)
    Title : AC3 5.1
    Language : Thai
    Service kind : Complete Main
    Default : No
    Forced : No

    Text #1
    ID : 6
    Format : VobSub
    Muxing mode : zlib
    Codec ID : S_VOBSUB
    Codec ID/Info : Picture based subtitle format used on DVDs
    Duration : 1 h 46 min
    Bit rate : 14.1 kb/s
    Count of elements : 1486
    Stream size : 10.8 MiB (0%)
    Title : English SDH
    Language : English
    Default : No
    Forced : No

    Text #2
    ID : 7
    Format : UTF-8
    Codec ID : S_TEXT/UTF8
    Codec ID/Info : UTF-8 Plain Text
    Duration : 1 h 46 min
    Bit rate : 65 b/s
    Count of elements : 1486
    Stream size : 50.8 KiB (0%)
    Title : English SDH
    Language : English
    Default : No
    Forced : No

    Text #3
    ID : 8
    Format : PGS
    Muxing mode : zlib
    Codec ID : S_HDMV/PGS
    Codec ID/Info : Picture based subtitle format used on BDs/HD-DVDs
    Duration : 1 h 46 min
    Bit rate : 64.6 kb/s
    Count of elements : 2972
    Stream size : 49.3 MiB (0%)
    Title : English SDH White
    Language : English
    Default : No
    Forced : No

    Text #4
    ID : 9
    Format : PGS
    Muxing mode : zlib
    Codec ID : S_HDMV/PGS
    Codec ID/Info : Picture based subtitle format used on BDs/HD-DVDs
    Duration : 1 h 46 min
    Bit rate : 64.6 kb/s
    Count of elements : 2972
    Stream size : 49.3 MiB (0%)
    Title : English SDH Yellow
    Language : English
    Default : No
    Forced : No

    Text #5
    ID : 10
    Format : PGS
    Muxing mode : zlib
    Codec ID : S_HDMV/PGS
    Codec ID/Info : Picture based subtitle format used on BDs/HD-DVDs
    Duration : 1 h 46 min
    Bit rate : 42.2 kb/s
    Count of elements : 2974
    Stream size : 32.2 MiB (0%)
    Title : English SDH
    Language : English
    Default : Yes
    Forced : No

    Text #6
    ID : 11
    Format : PGS
    Muxing mode : zlib
    Codec ID : S_HDMV/PGS
    Codec ID/Info : Picture based subtitle format used on BDs/HD-DVDs
    Duration : 1 h 46 min
    Bit rate : 37.2 kb/s
    Count of elements : 2588
    Stream size : 28.4 MiB (0%)
    Title : English Regular
    Language : English
    Default : No
    Forced : No

    Text #7
    ID : 12
    Format : PGS
    Muxing mode : zlib
    Codec ID : S_HDMV/PGS
    Codec ID/Info : Picture based subtitle format used on BDs/HD-DVDs
    Duration : 1 h 46 min
    Bit rate : 35.7 kb/s
    Count of elements : 2614
    Stream size : 27.3 MiB (0%)
    Title : Danish
    Language : Danish
    Default : No
    Forced : No

    Text #8
    ID : 13
    Format : PGS
    Muxing mode : zlib
    Codec ID : S_HDMV/PGS
    Codec ID/Info : Picture based subtitle format used on BDs/HD-DVDs
    Duration : 1 h 46 min
    Bit rate : 32.1 kb/s
    Count of elements : 2270
    Stream size : 24.5 MiB (0%)
    Title : Finnish
    Language : Finnish
    Default : No
    Forced : No

    Text #9
    ID : 14
    Format : PGS
    Muxing mode : zlib
    Codec ID : S_HDMV/PGS
    Codec ID/Info : Picture based subtitle format used on BDs/HD-DVDs
    Duration : 1 h 46 min
    Bit rate : 34.6 kb/s
    Count of elements : 2624
    Stream size : 26.4 MiB (0%)
    Title : Norwegian
    Language : Norwegian
    Default : No
    Forced : No

    Text #10
    ID : 15
    Format : PGS
    Muxing mode : zlib
    Codec ID : S_HDMV/PGS
    Codec ID/Info : Picture based subtitle format used on BDs/HD-DVDs
    Duration : 1 h 46 min
    Bit rate : 34.3 kb/s
    Count of elements : 2622
    Stream size : 26.2 MiB (0%)
    Title : Portuguese
    Language : Portuguese
    Default : No
    Forced : No

    Text #11
    ID : 16
    Format : PGS
    Muxing mode : zlib
    Codec ID : S_HDMV/PGS
    Codec ID/Info : Picture based subtitle format used on BDs/HD-DVDs
    Duration : 1 h 46 min
    Bit rate : 36.1 kb/s
    Count of elements : 2630
    Stream size : 27.4 MiB (0%)
    Title : Spanish
    Language : Spanish
    Default : No
    Forced : No

    Text #12
    ID : 17
    Format : PGS
    Muxing mode : zlib
    Codec ID : S_HDMV/PGS
    Codec ID/Info : Picture based subtitle format used on BDs/HD-DVDs
    Duration : 1 h 46 min
    Bit rate : 27.6 kb/s
    Count of elements : 1756
    Stream size : 21.1 MiB (0%)
    Title : Swedish
    Language : Swedish
    Default : No
    Forced : No

    Text #13
    ID : 18
    Format : VobSub
    Muxing mode : zlib
    Codec ID : S_VOBSUB
    Codec ID/Info : Picture based subtitle format used on DVDs
    Duration : 1 h 39 min
    Bit rate : 9 436 b/s
    Count of elements : 1087
    Stream size : 6.72 MiB (0%)
    Title : Thai
    Language : Thai
    Default : No
    Forced : No

    Text #14
    ID : 19
    Format : UTF-8
    Codec ID : S_TEXT/UTF8
    Codec ID/Info : UTF-8 Plain Text
    Duration : 1 h 39 min
    Bit rate : 124 b/s
    Count of elements : 1087
    Stream size : 90.7 KiB (0%)
    Title : Thai
    Language : Thai
    Default : No
    Forced : No

    Text #15
    ID : 20
    Format : PGS
    Muxing mode : zlib
    Codec ID : S_HDMV/PGS
    Codec ID/Info : Picture based subtitle format used on BDs/HD-DVDs
    Duration : 1 h 39 min
    Bit rate : 44.0 kb/s
    Count of elements : 2174
    Stream size : 31.3 MiB (0%)
    Title : Thai White
    Language : Thai
    Default : No
    Forced : No

    Text #16
    ID : 21
    Format : PGS
    Muxing mode : zlib
    Codec ID : S_HDMV/PGS
    Codec ID/Info : Picture based subtitle format used on BDs/HD-DVDs
    Duration : 1 h 39 min
    Bit rate : 44.0 kb/s
    Count of elements : 2174
    Stream size : 31.3 MiB (0%)
    Title : Thai Yellow
    Language : Thai
    Default : No
    Forced : No



    Download: cornfile
    http://cornfile.com/gsu07b6nldke
    Download: mekafile
    http://www.mekafile.com/dl.php?f=hKe2dbc0WRa6

  2. #2
    Senior Member
    สมัครเมื่อ
    Jun 2012
    โพสต์
    1,280
    Thanks
    0
    Thanked 1 Time in 1 Post
    ขอบคุณครับ

  3. #3
    Senior Member
    สมัครเมื่อ
    Jun 2014
    โพสต์
    2,579
    Thanks
    0
    Thanked 0 Times in 0 Posts
    ขอบคุณครับ

+ ตอบกลับกระทู้

ข้อมูลกระทู้

Users Browsing this Thread

ในขณะนี้มี 1 ท่านดูกระทู้อยู่. (0 สมาชิกและ 1 ผู้เยี่ยมชม)

     

กฎการโพสต์ข้อความ

  • ท่าน ไม่สามารถ ตั้งกระทู้ใหม่ได้
  • ท่าน ไม่สามารถ ตอบกระทู้ได้
  • ท่าน ไม่สามารถ แนบไฟล์ได้
  • ท่าน ไม่สามารถ แก้ไขข้อความโพสต์ได้
  • BB code สถานะ เปิด
  • Smilies สถานะ เปิด
  • [IMG] สถานะ เปิด
  • HTML สถานะ ปิด