+ ตอบกลับกระทู้
สรุปผลการค้นหา 1 ถึง 3 จากทั้งหมด 3
  1. #1
    Administrators รูปส่วนตัว Duckload.us
    สมัครเมื่อ
    Dec 2010
    โพสต์
    108,602
    Thanks
    7
    Thanked 113,680 Times in 52,414 Posts

    Question [ฝรั่ง]-[** Blu-ray 1080P + เสียงไทยโม**] The Indian in the Cupboard (1995) : ตู้มหัศจรรย์คนพันธุ์จิ๋ว • [1080p] • [* BluRay.x264 *] [พากย์ไทย 2.0 + เสียงอังกฤษ 2.0]



    ••• 1080p.BluRay.x264 •••
    พากย์ไทย 2.0 + เสียงอังกฤษ 2.0

    The Indian in the Cupboard สร้างจากวรรณกรรมเยาวชนในชื่อเดียวกัน เรื่องราวแฟนตาซีที่เกิดขึ้นจากของขวัญวันเกิดอายุ 9 ปีของหนุ่มน้อย อย่างตู้เก่าๆกับหุ่นพลาสติกอินเดียนจิ๋วที่จู่ๆก็มี ชีวิตขึ้นมา!

    Format : Matroska
    Format version : Version 4
    File size : 1.79 GiB
    Duration : 1 h 36 min
    Overall bit rate : 2 663 kb/s
    Movie name : {MINI-HD}_The.Indian.In.The.Cupboard.1995.1080p.BluRay.x 264_By [email protected]

    Video
    ID : 1
    Format : AVC
    Format/Info : Advanced Video Codec
    Format profile : [email protected]
    Format settings : CABAC / 4 Ref Frames
    Format settings, CABAC : Yes
    Format settings, Reference : 4 frames
    Codec ID : V_MPEG4/ISO/AVC
    Duration : 1 h 36 min
    Bit rate : 2 150 kb/s
    Width : 1 920 pixels
    Height : 1 024 pixels
    Display aspect ratio : 1.85:1
    Frame rate mode : Constant
    Frame rate : 23.976 (24000/1001) FPS
    Color space : YUV
    Chroma subsampling : 4:2:0
    Bit depth : 8 bits
    Scan type : Progressive
    Bits/(Pixel*Frame) : 0.046
    Stream size : 1.44 GiB (81%)
    Title : {MINI-HD}_The.Indian.In.The.Cupboard.1995.1080p.BluRay.x 264_By [email protected]
    Writing library : x264 core 152
    Encoding settings : cabac=1 / ref=4 / deblock=1:-1:-1 / analyse=0x3:0x133 / me=umh / subme=9 / psy=1 / psy_rd=1.00:0.15 / mixed_ref=1 / me_range=24 / chroma_me=1 / trellis=2 / 8x8dct=1 / cqm=0 / deadzone=21,11 / fast_pskip=0 / chroma_qp_offset=-3 / threads=12 / lookahead_threads=1 / sliced_threads=0 / nr=0 / decimate=1 / interlaced=0 / bluray_compat=0 / constrained_intra=0 / bframes=3 / b_pyramid=2 / b_adapt=2 / b_bias=0 / direct=3 / weightb=1 / open_gop=0 / weightp=2 / keyint=250 / keyint_min=23 / scenecut=40 / intra_refresh=0 / rc_lookahead=60 / rc=2pass / mbtree=1 / bitrate=2150 / ratetol=1.0 / qcomp=0.60 / qpmin=0 / qpmax=69 / qpstep=4 / cplxblur=20.0 / qblur=0.5 / vbv_maxrate=31250 / vbv_bufsize=31250 / nal_hrd=none / filler=0 / ip_ratio=1.40 / aq=1:1.00
    Language : English
    Default : Yes
    Forced : No

    Audio #1
    ID : 2
    Format : AC-3
    Format/Info : Audio Coding 3
    Commercial name : Dolby Digital
    Codec ID : A_AC3
    Duration : 1 h 36 min
    Bit rate mode : Constant
    Bit rate : 384 kb/s
    Channel(s) : 2 channels
    Channel layout : L R
    Sampling rate : 48.0 kHz
    Frame rate : 31.250 FPS (1536 SPF)
    Bit depth : 16 bits
    Compression mode : Lossy
    Delay relative to video : -43 ms
    Stream size : 264 MiB (14%)
    Title : Thai 2.0 @ 384 kb/s By Mr.Captain
    Language : Thai
    Service kind : Complete Main
    Default : Yes
    Forced : Yes

    Audio #2
    ID : 3
    Format : AAC LC
    Format/Info : Advanced Audio Codec Low Complexity
    Codec ID : A_AAC-2
    Duration : 1 h 36 min
    Bit rate : 128 kb/s
    Channel(s) : 2 channels
    Channel layout : L R
    Sampling rate : 48.0 kHz
    Frame rate : 46.875 FPS (1024 SPF)
    Compression mode : Lossy
    Delay relative to video : -43 ms
    Stream size : 88.0 MiB (5%)
    Title : English 2.0 @ 128 kb/s
    Language : English
    Default : No
    Forced : No



    Download: cornfile
    http://cornfile.com/d1sgi6druo29
    Download: mekafile
    http://www.mekafile.com/dl.php?f=hhc9e0c0WFUO

  2. The Following User Says Thank You to Duckload.us For This Useful Post:

    bigbang06 (11-04-2019)

  3. #2
    Senior Member
    สมัครเมื่อ
    Jun 2014
    โพสต์
    1,347
    Thanks
    0
    Thanked 0 Times in 0 Posts
    ขอบคุณครับ

  4. #3
    Senior Member
    สมัครเมื่อ
    Jul 2012
    โพสต์
    6,251
    Thanks
    0
    Thanked 0 Times in 0 Posts
    ขอบคุณมากจ้า

+ ตอบกลับกระทู้

ข้อมูลกระทู้

Users Browsing this Thread

ในขณะนี้มี 1 ท่านดูกระทู้อยู่. (0 สมาชิกและ 1 ผู้เยี่ยมชม)

     

กฎการโพสต์ข้อความ

  • ท่าน ไม่สามารถ ตั้งกระทู้ใหม่ได้
  • ท่าน ไม่สามารถ ตอบกระทู้ได้
  • ท่าน ไม่สามารถ แนบไฟล์ได้
  • ท่าน ไม่สามารถ แก้ไขข้อความโพสต์ได้
  • BB code สถานะ เปิด
  • Smilies สถานะ เปิด
  • [IMG] สถานะ เปิด
  • HTML สถานะ ปิด