+ ตอบกลับกระทู้
สรุปผลการค้นหา 1 ถึง 2 จากทั้งหมด 2
  1. #1
    Administrators รูปส่วนตัว Duckload.us
    สมัครเมื่อ
    Dec 2010
    โพสต์
    108,593
    Thanks
    7
    Thanked 113,675 Times in 52,414 Posts

    Question [ฝรั่ง]-[**ใหม่ Blu-ray Remux 1080P**] The Art of Racing in the Rain (2019) : อุ่นไอหัวใจตูบ [1080p.BluRay.REMUX.AVC.DTS-HD.MA.7.1] [เสียงอังกฤษ DTS-HD.MA 7.1] [บรรยายไทย + อังกฤษ + ซับไทย PGS คมชัด ]





    จากนิยายขายดีฝีมือ การ์ธ สไตน์ สู่ภาพยนตร์ที่บอกเล่าโดยน้องหมาแสนรู้ชื่อว่า เอนโซ (พากย์เสียงโดย เควิน คอสต์เนอร์) กับเรื่องราวชวนประทับใจของมิตรภาพของมันและเจ้านายท ี่รัก เดนนี่ สวิฟต์ (ไมโล เวนทิมิเกลีย) ผู้เป็นนักแข่งรถฟอร์มูล่า วันมือฉมัง เอนโซได้ทำความเข้าใจเกี่ยวกับมนุษย์ และได้รับบทเรียนครั้งยิ่งใหญ่ว่าเทคนิคในสนามแข่งรถ นั้น สามารถนำมาปรับใช้ให้เข้ากับการเดินทางของชีวิตอีกด้ วย พร้อมท่องไปในโลกของน้องหมา เอนโซ พร้อมกับครอบครัวของเดนนี่ ร่วมด้วยศรีภรรยาของเขา อีฟ (อะแมนด้า ไซย์ฟรีด) และลูกสาวสุดที่รัก โซอี้ (ไรอัน คิเอร่า อาร์มสตรอง) การันตีความน่ารักน่าเอ็นดูโดยทีมผู้สร้างจาก Marley & Me นำโดยผู้กำกับฯ ไซมอน เคอร์ทิส และผู้เขียนบทฯ มาร์ค บอมแบ็ก...!!!


    Code:
    Format                                   : Matroska
    Format version                           : Version 4
    File size                                : 26.8 GiB
    Duration                                 : 1 h 48 min
    Overall bit rate                         : 35.3 Mb/s
    Movie name                               : The.Art.[email protected]Prawit9730
    
    Video
    ID                                       : 1
    Format                                   : AVC
    Format/Info                              : Advanced Video Codec
    Format profile                           : [email protected]
    Format settings                          : CABAC / 4 Ref Frames
    Format settings, CABAC                   : Yes
    Format settings, RefFrames               : 4 frames
    Codec ID                                 : V_MPEG4/ISO/AVC
    Duration                                 : 1 h 48 min
    Bit rate mode                            : Variable
    Bit rate                                 : 29.8 Mb/s
    Maximum bit rate                         : 31.0 Mb/s
    Width                                    : 1 920 pixels
    Height                                   : 1 080 pixels
    Display aspect ratio                     : 16:9
    Frame rate mode                          : Constant
    Frame rate                               : 23.976 (24000/1001) FPS
    Color space                              : YUV
    Chroma subsampling                       : 4:2:0
    Bit depth                                : 8 bits
    Scan type                                : Progressive
    Bits/(Pixel*Frame)                       : 0.599
    Stream size                              : 22.6 GiB (84%)
    Title                                    : The.Art.[email protected]Prawit9730
    Default                                  : Yes
    Forced                                   : No
    
    Audio #1
    ID                                       : 2
    Format                                   : DTS XLL
    Format/Info                              : Digital Theater Systems
    Commercial name                          : DTS-HD Master Audio
    Codec ID                                 : A_DTS
    Duration                                 : 1 h 48 min
    Bit rate mode                            : Variable
    Bit rate                                 : 4 906 kb/s
    Channel(s)                               : 8 channels
    Channel layout                           : C L R LFE Lb Rb Lss Rss
    Sampling rate                            : 48.0 kHz
    Frame rate                               : 93.750 FPS (512 SPF)
    Bit depth                                : 24 bits
    Compression mode                         : Lossless
    Stream size                              : 3.73 GiB (14%)
    Title                                    : English DTS-HD.MA 7.1
    Language                                 : English
    Default                                  : Yes
    Forced                                   : No
    
    Audio #2
    ID                                       : 3
    Format                                   : AC-3
    Format/Info                              : Audio Coding 3
    Commercial name                          : Dolby Digital
    Codec ID                                 : A_AC3
    Duration                                 : 1 h 48 min
    Bit rate mode                            : Constant
    Bit rate                                 : 448 kb/s
    Channel(s)                               : 6 channels
    Channel layout                           : L R C LFE Ls Rs
    Sampling rate                            : 48.0 kHz
    Frame rate                               : 31.250 FPS (1536 SPF)
    Bit depth                                : 16 bits
    Compression mode                         : Lossy
    Stream size                              : 349 MiB (1%)
    Title                                    : English 5.1
    Language                                 : English
    Service kind                             : Complete Main
    Default                                  : No
    Forced                                   : No
    
    Text #1
    ID                                       : 4
    Format                                   : PGS
    Muxing mode                              : zlib
    Codec ID                                 : S_HDMV/PGS
    Codec ID/Info                            : Picture based subtitle format used on BDs/HD-DVDs
    Duration                                 : 1 h 48 min
    Bit rate                                 : 41.2 kb/s
    Count of elements                        : 3534
    Stream size                              : 31.9 MiB (0%)
    Title                                    : English PGS
    Language                                 : English
    Default                                  : No
    Forced                                   : No
    
    Text #2
    ID                                       : 5
    Format                                   : VobSub
    Muxing mode                              : zlib
    Codec ID                                 : S_VOBSUB
    Codec ID/Info                            : Picture based subtitle format used on DVDs
    Duration                                 : 1 h 41 min
    Bit rate                                 : 2 499 b/s
    Count of elements                        : 1405
    Stream size                              : 1.82 MiB (0%)
    Title                                    : Thai 480P
    Language                                 : Thai
    Default                                  : No
    Forced                                   : No
    
    Text #3
    ID                                       : 6
    Format                                   : VobSub
    Muxing mode                              : zlib
    Codec ID                                 : S_VOBSUB
    Codec ID/Info                            : Picture based subtitle format used on DVDs
    Duration                                 : 1 h 41 min
    Bit rate                                 : 4 435 b/s
    Count of elements                        : 1405
    Stream size                              : 3.23 MiB (0%)
    Title                                    : Thai 720P
    Language                                 : Thai
    Default                                  : No
    Forced                                   : No
    
    Text #4
    ID                                       : 7
    Format                                   : VobSub
    Muxing mode                              : zlib
    Codec ID                                 : S_VOBSUB
    Codec ID/Info                            : Picture based subtitle format used on DVDs
    Duration                                 : 1 h 41 min
    Bit rate                                 : 7 248 b/s
    Count of elements                        : 1405
    Stream size                              : 5.28 MiB (0%)
    Title                                    : Thai 1080P
    Language                                 : Thai
    Default                                  : No
    Forced                                   : No
    
    Text #5
    ID                                       : 8
    Format                                   : VobSub
    Muxing mode                              : zlib
    Codec ID                                 : S_VOBSUB
    Codec ID/Info                            : Picture based subtitle format used on DVDs
    Duration                                 : 1 h 41 min
    Bit rate                                 : 8 574 b/s
    Count of elements                        : 1405
    Stream size                              : 6.25 MiB (0%)
    Title                                    : Thai 1080P BIG
    Language                                 : Thai
    Default                                  : No
    Forced                                   : No
    
    Text #6
    ID                                       : 9
    Format                                   : VobSub
    Muxing mode                              : zlib
    Codec ID                                 : S_VOBSUB
    Codec ID/Info                            : Picture based subtitle format used on DVDs
    Duration                                 : 1 h 41 min
    Bit rate                                 : 7 259 b/s
    Count of elements                        : 1405
    Stream size                              : 5.29 MiB (0%)
    Title                                    : Thai 1080PYellow
    Language                                 : Thai
    Default                                  : No
    Forced                                   : No
    
    Text #7
    ID                                       : 10
    Format                                   : PGS
    Muxing mode                              : zlib
    Codec ID                                 : S_HDMV/PGS
    Codec ID/Info                            : Picture based subtitle format used on BDs/HD-DVDs
    Duration                                 : 1 h 41 min
    Bit rate                                 : 24.7 kb/s
    Count of elements                        : 2810
    Stream size                              : 18.0 MiB (0%)
    Title                                    : Thai PGS
    Language                                 : Thai
    Default                                  : Yes
    Forced                                   : No
    
    Text #8
    ID                                       : 11
    Format                                   : PGS
    Muxing mode                              : zlib
    Codec ID                                 : S_HDMV/PGS
    Codec ID/Info                            : Picture based subtitle format used on BDs/HD-DVDs
    Duration                                 : 1 h 41 min
    Bit rate                                 : 29.0 kb/s
    Count of elements                        : 2810
    Stream size                              : 21.1 MiB (0%)
    Title                                    : Thai PGS BIG
    Language                                 : Thai
    Default                                  : No
    Forced                                   : No
    
    Text #9
    ID                                       : 12
    Format                                   : PGS
    Muxing mode                              : zlib
    Codec ID                                 : S_HDMV/PGS
    Codec ID/Info                            : Picture based subtitle format used on BDs/HD-DVDs
    Duration                                 : 1 h 41 min
    Bit rate                                 : 24.8 kb/s
    Count of elements                        : 2810
    Stream size                              : 18.1 MiB (0%)
    Title                                    : Thai PGS Yellow
    Language                                 : Thai
    Default                                  : No
     Forced                                   : No





















    Download: cornfile
    http://cornfile.com/8mre2wp03xse
    Download: mekafile
    http://www.mekafile.com/dl.php?f=FI9024c19CGo

  2. #2
    Senior Member
    สมัครเมื่อ
    Jun 2014
    โพสต์
    1,347
    Thanks
    0
    Thanked 0 Times in 0 Posts
    ขอบคุณครับ

+ ตอบกลับกระทู้

ข้อมูลกระทู้

Users Browsing this Thread

ในขณะนี้มี 1 ท่านดูกระทู้อยู่. (0 สมาชิกและ 1 ผู้เยี่ยมชม)

     

กฎการโพสต์ข้อความ

  • ท่าน ไม่สามารถ ตั้งกระทู้ใหม่ได้
  • ท่าน ไม่สามารถ ตอบกระทู้ได้
  • ท่าน ไม่สามารถ แนบไฟล์ได้
  • ท่าน ไม่สามารถ แก้ไขข้อความโพสต์ได้
  • BB code สถานะ เปิด
  • Smilies สถานะ เปิด
  • [IMG] สถานะ เปิด
  • HTML สถานะ ปิด