+ ตอบกลับกระทู้
สรุปผลการค้นหา 1 ถึง 3 จากทั้งหมด 3
  1. #1
    Administrators รูปส่วนตัว Duckload.us
    สมัครเมื่อ
    Dec 2010
    โพสต์
    108,513
    Thanks
    7
    Thanked 113,484 Times in 52,364 Posts

    Lightbulb [ฝรั่ง]-(2019) Treadstone (เทรดสโตน ปลุกชีพยอดจารชน) Season 01 Episode 01-04 -HDTV.H.264.1080p. [From HD-TV]-[Soundtrack บรรยายไทย (แปล)]


    Treadstone เป็นซีรีส์แยกจากหนังดัง Jason Bourne ซึ่งเล่าเรื่องในจักวาลเดียวกับ Jason Bourne จะเปิดโลกให้กว้างขึ้นสำหรับองค์กรที่ฝึกนักฆ่าหรือส ายลับเพื่อแทรกซึมทำงานในภารกิจต่างๆ มีนักแสดงเกาหลีอย่าง ฮันฮโยจู มาเล่นเป็นสายลับเกาหลีเหนือ
    “Treadstone” จะเล่าถึงเรื่องราวของกลุ่มสายลับ CIA กับปฏิบัติการที่หลากหลายทั่วโลก โดย ฮันฮโยจู จะรับบทเป็น โซยุน สายลับจากเกาหลีเหนือที่ตัดสินใจเลือกทำบางสิ่งบางอย ่าง เพื่อความสงบสุขของครอบครัวหลังจากได้ค้นพบความลับบา งอย่างที่เกิดขึ้นในอดีตซึ่งเธอจะได้แสดงร่วมกับนักแ สดงชื่อดัง Jeremy Irvine , Brian J. Smith ,
    Omar Metwally , Tracy Ifeachor , Gabrielle Scharnitzky , Emilia Sch� le
    และอีกมากมายในซีรีส์เรื่องนี้




    Format : MPEG-4
    Format profile : Base Media / Version 2
    Codec ID : mp42 (isom/iso2/avc1/mp41)
    File size : 1.19 GiB
    Duration : 43 min 34 s
    Overall bit rate : 3 915 kb/s
    Encoded date : UTC 2019-11-06 05:25:17
    Tagged date : UTC 2019-11-06 05:25:17
    Writing application : HandBrake 1.1.1 2018061800

    Video
    ID : 1
    Format : AVC
    Format/Info : Advanced Video Codec
    Format profile : [email protected]
    Format settings, CABAC : Yes
    Format settings, ReFrames : 4 frames
    Codec ID : avc1
    Codec ID/Info : Advanced Video Coding
    Duration : 43 min 34 s
    Bit rate : 3 270 kb/s
    Width : 1 920 pixels
    Height : 1 080 pixels
    Display aspect ratio : 2.000
    Frame rate mode : Variable
    Frame rate : 23.976 (24000/1001) FPS
    Minimum frame rate : 23.974 FPS
    Maximum frame rate : 23.981 FPS
    Color space : YUV
    Chroma subsampling : 4:2:0
    Bit depth : 8 bits
    Scan type : Progressive
    Bits/(Pixel*Frame) : 0.066
    Stream size : 1 019 MiB (84%)
    Writing library : x264 core 155 r2901 7d0ff22
    Encoding settings : cabac=1 / ref=2 / deblock=1:0:0 / analyse=0x1:0x111 / me=hex / subme=6 / psy=1 / psy_rd=1.00:0.00 / mixed_ref=1 / me_range=16 / chroma_me=1 / trellis=1 / 8x8dct=0 / cqm=0 / deadzone=21,11 / fast_pskip=1 / chroma_qp_offset=-2 / threads=6 / lookahead_threads=1 / sliced_threads=0 / nr=0 / decimate=1 / interlaced=0 / bluray_compat=0 / constrained_intra=0 / bframes=3 / b_pyramid=2 / b_adapt=1 / b_bias=0 / direct=1 / weightb=1 / open_gop=0 / weightp=1 / keyint=240 / keyint_min=24 / scenecut=40 / intra_refresh=0 / rc_lookahead=30 / rc=crf / mbtree=1 / crf=22.0 / qcomp=0.60 / qpmin=0 / qpmax=69 / qpstep=4 / vbv_maxrate=20000 / vbv_bufsize=25000 / crf_max=0.0 / nal_hrd=none / filler=0 / ip_ratio=1.40 / aq=1:1.00
    Encoded date : UTC 2019-11-06 05:25:17
    Tagged date : UTC 2019-11-06 05:25:17
    Color range : Limited
    Color primaries : BT.709
    Transfer characteristics : BT.709
    Matrix coefficients : BT.709

    Audio
    ID : 2
    Format : AC-3
    Format/Info : Audio Coding 3
    Mode extension : CM (complete main)
    Format settings, Endianness : Big
    Codec ID : ac-3
    Duration : 43 min 34 s
    Bit rate mode : Constant
    Bit rate : 640 kb/s
    Channel(s) : 6 channels
    Channel positions : Front: L C R, Side: L R, LFE
    Sampling rate : 48.0 kHz
    Frame rate : 31.250 FPS (1536 spf)
    Bit depth : 16 bits
    Compression mode : Lossy
    Stream size : 199 MiB (16%)
    Title : Surround / Surround
    Language : English
    Default : Yes
    Alternate group : 1
    Encoded date : UTC 2019-11-06 05:25:17
    Tagged date : UTC 2019-11-06 05:25:17


    1
    http://www.filecondo.com/dl.php?f=D5eaba1ItpoG
    2
    http://www.filecondo.com/dl.php?f=sd1f281IsYYc
    3
    http://www.filecondo.com/dl.php?f=d593d31IxkSu
    4
    http://www.filecondo.com/dl.php?f=z833b01ICMbR

  2. #2
    Senior Member
    สมัครเมื่อ
    May 2014
    โพสต์
    408
    Thanks
    0
    Thanked 0 Times in 0 Posts
    Ep.1 หายไปไหนครับท่าน

  3. #3
    Administrators รูปส่วนตัว Duckload.us
    สมัครเมื่อ
    Dec 2010
    โพสต์
    108,513
    Thanks
    7
    Thanked 113,484 Times in 52,364 Posts
    อ้างอิง โพสต์ต้นฉบับโดยคุณ songkran ดูโพสต์
    Ep.1 หายไปไหนครับท่าน
    เรียนแจ้ง อัพแล้วครับ

+ ตอบกลับกระทู้

ข้อมูลกระทู้

Users Browsing this Thread

ในขณะนี้มี 1 ท่านดูกระทู้อยู่. (0 สมาชิกและ 1 ผู้เยี่ยมชม)

     

กฎการโพสต์ข้อความ

  • ท่าน ไม่สามารถ ตั้งกระทู้ใหม่ได้
  • ท่าน ไม่สามารถ ตอบกระทู้ได้
  • ท่าน ไม่สามารถ แนบไฟล์ได้
  • ท่าน ไม่สามารถ แก้ไขข้อความโพสต์ได้
  • BB code สถานะ เปิด
  • Smilies สถานะ เปิด
  • [IMG] สถานะ เปิด
  • HTML สถานะ ปิด