+ ตอบกลับกระทู้
สรุปผลการค้นหา 1 ถึง 2 จากทั้งหมด 2
  1. #1
    Administrators รูปส่วนตัว Duckload.us
    สมัครเมื่อ
    Dec 2010
    โพสต์
    108,593
    Thanks
    7
    Thanked 113,675 Times in 52,414 Posts

    Question [ฝรั่ง]-[4K HDR Remux] San Andreas (2015) : มหาวินาศแผ่นดินแยก • [พากย์ไทย 5.1 + เสียงอังกฤษ TrueHD Atmos + DTS-HD MA + AC-3] • [บรรยายไทย + อังกฤษ]





    San Andreas (2015) มหาวินาศแผ่นดินแยก
    หลังจากเกิดเหตุการณ์ San Andreas ที่มีชื่อเสียงจนทำให้เกิดแผ่นดินไหวครั้งใหญ่ระดับ 9 ที่แคลิฟอร์เนีย นักบินเฮลิคอปเตอร์ผู้ค้นหาและช่วยชีวิต (จอห์นสัน) กับภรรยาที่ไม่ค่อยลงรอยกันต้องออกเดินทางจากลอสแอนเ จลิสไปจนถึงซานฟรานซิสโกด้วยกันเพื่อช่วยลูกสาวคนเดี ยวของพวกเขา

    แต่การเดินทางสู่ทางตอนเหนืออันโหดร้ายของพวกเขาเป็น เพียงจุดเริ่มต้นเท่านั้น พวกเขาคิดว่าเรื่องร้าย ๆ ผ่านพ้นไปแล้ว …แต่มันเพิ่งเริ่มต้น

    Video
    ID : 1
    Format : HEVC
    Format/Info : High Efficiency Video Coding
    Commercial name : HDR10
    Format profile : Main [email protected]@High
    Codec ID : V_MPEGH/ISO/HEVC
    Duration : 1 h 54 min
    Bit rate : 54.0 Mb/s
    Width : 3 840 pixels
    Height : 2 160 pixels
    Display aspect ratio : 16:9
    Frame rate mode : Constant
    Frame rate : 23.976 (24000/1001) FPS
    Color space : YUV
    Chroma subsampling : 4:2:0 (Type 2)
    Bit depth : 10 bits
    Bits/(Pixel*Frame) : 0.272
    Stream size : 43.2 GiB (84%)
    Writing library : ATEME Titan KFE 3.7.3 (4.7.3.1001)
    Language : English
    Default : Yes
    Forced : No
    Color range : Limited
    Color primaries : BT.2020
    Transfer characteristics : PQ
    Matrix coefficients : BT.2020 non-constant
    Mastering display color primaries : Display P3
    Mastering display luminance : min: 0.0050 cd/m2, max: 4000 cd/m2

    Audio #1
    ID : 2
    Format : MLP FBA 16-ch
    Format/Info : Meridian Lossless Packing FBA with 16-channel presentation
    Commercial name : Dolby TrueHD with Dolby Atmos
    Codec ID : A_TRUEHD
    Duration : 1 h 54 min
    Bit rate mode : Variable
    Bit rate : 5 240 kb/s
    Maximum bit rate : 8 760 kb/s
    Channel(s) : 8 channels
    Channel layout : L R C LFE Ls Rs Lb Rb
    Sampling rate : 48.0 kHz
    Frame rate : 1 200.000 FPS (40 SPF)
    Compression mode : Lossless
    Stream size : 4.19 GiB (8%)
    Language : English
    Default : Yes
    Forced : No
    Number of dynamic objects : 11
    Bed channel count : 1 channel
    Bed channel configuration : LFE

    Audio #2
    ID : 3
    Format : DTS XLL
    Format/Info : Digital Theater Systems
    Commercial name : DTS-HD Master Audio
    Codec ID : A_DTS
    Duration : 1 h 54 min
    Bit rate mode : Variable
    Bit rate : 4 431 kb/s
    Channel(s) : 8 channels
    Channel layout : C L R LFE Lb Rb Lss Rss
    Sampling rate : 48.0 kHz
    Frame rate : 93.750 FPS (512 SPF)
    Bit depth : 24 bits
    Compression mode : Lossless
    Stream size : 3.54 GiB (7%)
    Language : English
    Default : No
    Forced : No

    Audio #3
    ID : 4
    Format : AC-3
    Format/Info : Audio Coding 3
    Commercial name : Dolby Digital
    Codec ID : A_AC3
    Duration : 1 h 54 min
    Bit rate mode : Constant
    Bit rate : 384 kb/s
    Channel(s) : 6 channels
    Channel layout : L R C LFE Ls Rs
    Sampling rate : 48.0 kHz
    Frame rate : 31.250 FPS (1536 SPF)
    Bit depth : 16 bits
    Compression mode : Lossy
    Stream size : 314 MiB (1%)
    Language : English
    Service kind : Complete Main
    Default : No
    Forced : No

    Audio #4
    ID : 5
    Format : AC-3
    Format/Info : Audio Coding 3
    Commercial name : Dolby Digital
    Codec ID : A_AC3
    Duration : 1 h 54 min
    Bit rate mode : Constant
    Bit rate : 448 kb/s
    Channel(s) : 6 channels
    Channel layout : L R C LFE Ls Rs
    Sampling rate : 48.0 kHz
    Frame rate : 31.250 FPS (1536 SPF)
    Bit depth : 16 bits
    Compression mode : Lossy
    Stream size : 367 MiB (1%)
    Language : Thai
    Service kind : Complete Main
    Default : No
    Forced : Yes

    Text #1
    ID : 6
    Format : VobSub
    Muxing mode : zlib
    Codec ID : S_VOBSUB
    Codec ID/Info : Picture based subtitle format used on DVDs
    Duration : 1 h 53 min
    Bit rate : 3 825 b/s
    Count of elements : 1262
    Stream size : 3.10 MiB (0%)
    Title : 720p
    Language : Thai
    Default : No
    Forced : No

    Text #2
    ID : 7
    Format : VobSub
    Muxing mode : zlib
    Codec ID : S_VOBSUB
    Codec ID/Info : Picture based subtitle format used on DVDs
    Duration : 1 h 53 min
    Bit rate : 6 865 b/s
    Count of elements : 1262
    Stream size : 5.56 MiB (0%)
    Title : 1080p
    Language : Thai
    Default : No
    Forced : Yes

    Text #3
    ID : 8
    Format : PGS
    Muxing mode : zlib
    Codec ID : S_HDMV/PGS
    Codec ID/Info : Picture based subtitle format used on BDs/HD-DVDs
    Duration : 1 h 53 min
    Bit rate : 24.1 kb/s
    Count of elements : 2526
    Stream size : 19.5 MiB (0%)
    Language : Thai
    Default : No
    Forced : No

    Text #4
    ID : 9
    Format : PGS
    Muxing mode : zlib
    Codec ID : S_HDMV/PGS
    Codec ID/Info : Picture based subtitle format used on BDs/HD-DVDs
    Duration : 1 h 52 min
    Bit rate : 27.3 kb/s
    Count of elements : 2978
    Stream size : 22.1 MiB (0%)
    Language : English
    Default : Yes
    Forced : No

















    Download: cornfile
    http://cornfile.com/bbtpxqyxvceh
    Download: mekafile
    http://www.mekafile.com/dl.php?f=FX0304c1gQx8

  2. #2
    Senior Member
    สมัครเมื่อ
    Jun 2014
    โพสต์
    1,347
    Thanks
    0
    Thanked 0 Times in 0 Posts
    ขอบคุณครับ

+ ตอบกลับกระทู้

ข้อมูลกระทู้

Users Browsing this Thread

ในขณะนี้มี 1 ท่านดูกระทู้อยู่. (0 สมาชิกและ 1 ผู้เยี่ยมชม)

     

กฎการโพสต์ข้อความ

  • ท่าน ไม่สามารถ ตั้งกระทู้ใหม่ได้
  • ท่าน ไม่สามารถ ตอบกระทู้ได้
  • ท่าน ไม่สามารถ แนบไฟล์ได้
  • ท่าน ไม่สามารถ แก้ไขข้อความโพสต์ได้
  • BB code สถานะ เปิด
  • Smilies สถานะ เปิด
  • [IMG] สถานะ เปิด
  • HTML สถานะ ปิด