+ ตอบกลับกระทู้
สรุปผลการค้นหา 1 ถึง 3 จากทั้งหมด 3
  1. #1
    Administrators รูปส่วนตัว Duckload.us
    สมัครเมื่อ
    Dec 2010
    โพสต์
    112,576
    Thanks
    7
    Thanked 118,434 Times in 53,624 Posts

    Question [ฝรั่ง]-(.10bit.HDR)**Die Hard (1988) นรกระฟ้า**[เสียงอังกฤษ Opus + เสียงไทยมาสเตอร์ : บรรยายไทยมาสเตอร์BD + อังกฤษ + ฝรั่งเศส]-Encode.H.265.2160p. [Modified]-[พากย์ไทย บรรยายไทย]



    เหนือขึ้นไปบนยอดตึกของเมือง แอล.เอ. กลุ่มผู้ก่อการร้ายได้บุกเข้ายึดและจับคนเป็นตัวประก ันพร้อมทั้งประกาศสงคราม แต่มีชายคนหนึ่งพยายามจะเข้าคลี่คลายมัน เขาเป็นตำรวจซึ่งอยู่นอกเวลาปฏิบัติหน้าที่ เขาเพียงคนเดียว...กับงานที่สาหัส...แต่เวลาเพียงน้อ ยนิด

    จอห์น แม็คเคลน ยอดตำรวจแห่งเมืองนิวยอร์ค ผู้เดินทางมาถึงลอสแองเจลิส เพื่อร่วมฉลองเทศกาลคริสต์มาสกับภรรยา แต่ขณะที่แม็คเคลนรอให้งานปาร์ตี้เริ่มนั้น ผู้ก่อการร้ายซึ่งนำโดยฮานส์ กรูเบอร์ และสมุนใจโหดได้เข้ายึดตึกไว้ แน่นอน แม็คเคลนต้องคิดหาทางช่วย โดยมีเพียงปืนพกและสติปัญญาเป็นอาวุธ เขาเข้าร่วมศึกครั้งนี้โดยลำพัง และการปะทะกันก็เป็นสิ่งที่ไม่อาจหลีกเลี่ยง

    Format : HEVC
    Format/Info : High Efficiency Video Coding
    Format profile : Main [email protected]@Main
    Codec ID : V_MPEGH/ISO/HEVC
    Duration : 2 h 12 min
    Bit rate : 5 527 kb/s
    Width : 3 840 pixels
    Height : 1 604 pixels
    Display aspect ratio : 2.40:1
    Frame rate mode : Constant
    Frame rate : 23.976 (24000/1001) FPS
    Color space : YUV
    Chroma subsampling : 4:2:0
    Bit depth : 10 bits
    Bits/(Pixel*Frame) : 0.037
    Stream size : 5.10 GiB (88%)
    Writing library : x265 2.9+15-81373aab81df:[Mac OS X][clang 10.0.0][64 bit] 10bit
    Encoding settings : cpuid=1111039 / frame-threads=3 / wpp / no-pmode / no-pme / no-psnr / no-ssim / log-level=2 / input-csp=1 / input-res=3840x1604 / interlace=0 / total-frames=0 / level-idc=0 / high-tier=1 / uhd-bd=0 / ref=3 / no-allow-non-conformance / repeat-headers / annexb / no-aud / no-hrd / info / hash=0 / no-temporal-layers / open-gop / min-keyint=24 / keyint=240 / gop-lookahead=0 / bframes=4 / b-adapt=2 / b-pyramid / bframe-bias=0 / rc-lookahead=50 / lookahead-slices=8 / scenecut=40 / radl=0 / no-splice / no-intra-refresh / ctu=64 / min-cu-size=8 / no-rect / no-amp / max-tu-size=32 / tu-inter-depth=1 / tu-intra-depth=1 / limit-tu=0 / rdoq-level=0 / dynamic-rd=0.00 / no-ssim-rd / signh-i-d-e / no-tskip / nr-intra=0 / nr-inter=0 / no-constrained-intra / no-strong-intra-smoothing / max-merge=2 / limit-refs=3 / no-limit-modes / me=1 / subme=2 / merange=57 / temporal-mvp / weightp / no-weightb / no-analyze-src-pics / deblock=0:0 / sao / no-sao-non-deblock / rd=3 / no-early-skip / rskip / no-fast-intra / no-tskip-fast / no-cu-lossless / no-b-intra / no-splitrd-skip / rdpenalty=0 / psy-rd=2.00 / psy-rdoq=0.00 / no-rd-refine / no-lossless / cbqpoffs=0 / crqpoffs=0 / rc=crf / crf=22.0 / qcomp=0.60 / qpstep=4 / stats-write=0 / stats-read=0 / ipratio=1.40 / pbratio=1.30 / aq-mode=2 / aq-strength=1.00 / cutree / zone-count=0 / no-strict-cbr / qg-size=32 / no-rc-grain / qpmax=69 / qpmin=0 / no-const-vbv / sar=1 / overscan=0 / videoformat=5 / range=0 / colorprim=9 / transfer=16 / colormatrix=9 / chromaloc=0 / display-window=0 / max-cll=0,0 / min-luma=0 / max-luma=1023 / log2-max-poc-lsb=8 / vui-timing-info / vui-hrd-info / slices=1 / no-opt-qp-pps / no-opt-ref-list-length-pps / no-multi-pass-opt-rps / scenecut-bias=0.05 / no-opt-cu-delta-qp / no-aq-motion / hdr / hdr-opt / no-dhdr10-opt / no-idr-recovery-sei / analysis-reuse-level=5 / scale-factor=0 / refine-intra=0 / refine-inter=0 / refine-mv=0 / no-limit-sao / ctu-info=0 / no-lowpass-dct / refine-mv-type=0 / copy-pic=1 / max-ausize-factor=1.0 / no-dynamic-refine / no-single-sei
    Default : Yes
    Forced : No
    Color range : Limited
    Color primaries : BT.2020
    Transfer characteristics : PQ
    Matrix coefficients : BT.2020 non-constant

    Audio #1
    ID : 2
    Format : Opus
    Codec ID : A_OPUS
    Duration : 2 h 12 min
    Bit rate : 293 kb/s
    Channel(s) : 6 channels
    Channel layout : L R C Ls Rs Cb LFE
    Sampling rate : 48.0 kHz
    Frame rate : 50.000 FPS (960 SPF)
    Compression mode : Lossy
    Delay relative to video : -7 ms
    Stream size : 276 MiB (5%)
    Title : Surround
    Language : English
    Default : Yes
    Forced : No

    Audio #2
    ID : 3
    Format : AC-3
    Format/Info : Audio Coding 3
    Commercial name : Dolby Digital
    Codec ID : A_AC3
    Duration : 2 h 12 min
    Bit rate mode : Constant
    Bit rate : 448 kb/s
    Channel(s) : 6 channels
    Channel layout : L R C LFE Ls Rs
    Sampling rate : 48.0 kHz
    Frame rate : 31.250 FPS (1536 SPF)
    Bit depth : 16 bits
    Compression mode : Lossy
    Delay relative to video : 417 ms
    Stream size : 423 MiB (7%)
    Title : Master BD
    Language : Thai
    Service kind : Complete Main
    Default : No
    Forced : No

    Text #1
    ID : 4
    Format : PGS
    Muxing mode : zlib
    Codec ID : S_HDMV/PGS
    Codec ID/Info : Picture based subtitle format used on BDs/HD-DVDs
    Duration : 2 h 11 min
    Bit rate : 18.0 kb/s
    Count of elements : 2638
    Stream size : 16.9 MiB (0%)
    Title : Master BD
    Language : Thai
    Default : Yes
    Forced : No

    Text #2
    ID : 5
    Format : VobSub
    Muxing mode : zlib
    Codec ID : S_VOBSUB
    Codec ID/Info : Picture based subtitle format used on DVDs
    Duration : 2 h 11 min
    Bit rate : 4 817 b/s
    Count of elements : 1319
    Stream size : 4.52 MiB (0%)
    Title : Master BD
    Language : Thai
    Default : No
    Forced : No

    Text #3
    ID : 6
    Format : PGS
    Muxing mode : zlib
    Codec ID : S_HDMV/PGS
    Codec ID/Info : Picture based subtitle format used on BDs/HD-DVDs
    Duration : 2 h 7 min
    Bit rate : 29.7 kb/s
    Count of elements : 2802
    Stream size : 27.0 MiB (0%)
    Language : English
    Default : No
    Forced : No

    Text #4
    ID : 7
    Format : PGS
    Muxing mode : zlib
    Codec ID : S_HDMV/PGS
    Codec ID/Info : Picture based subtitle format used on BDs/HD-DVDs
    Duration : 2 h 11 min
    Bit rate : 40.8 kb/s
    Count of elements : 2084
    Stream size : 38.3 MiB (1%)
    Language : French
    Default : No
    Forced : No



    Download: cornfile
    http://cornfile.com/vdnmxue0fppa
    Download: mekafile
    http://www.mekafile.com/dl.php?f=Oic62ac1jOq6

  2. #2
    Member รูปส่วนตัว Krek
    สมัครเมื่อ
    Dec 2019
    โพสต์
    36
    Thanks
    0
    Thanked 0 Times in 0 Posts
    ขอทุกภาคเลยครับท่าน

  3. #3
    Senior Member
    สมัครเมื่อ
    Jun 2012
    โพสต์
    1,285
    Thanks
    0
    Thanked 1 Time in 1 Post
    ขอบคุณษครับ

+ ตอบกลับกระทู้

ข้อมูลกระทู้

Users Browsing this Thread

ในขณะนี้มี 1 ท่านดูกระทู้อยู่. (0 สมาชิกและ 1 ผู้เยี่ยมชม)

     

กฎการโพสต์ข้อความ

  • ท่าน ไม่สามารถ ตั้งกระทู้ใหม่ได้
  • ท่าน ไม่สามารถ ตอบกระทู้ได้
  • ท่าน ไม่สามารถ แนบไฟล์ได้
  • ท่าน ไม่สามารถ แก้ไขข้อความโพสต์ได้
  • BB code สถานะ เปิด
  • Smilies สถานะ เปิด
  • [IMG] สถานะ เปิด
  • HTML สถานะ ปิด