+ ตอบกลับกระทู้
สรุปผลการค้นหา 1 ถึง 2 จากทั้งหมด 2
  1. #1
    Administrators รูปส่วนตัว Duckload.us
    สมัครเมื่อ
    Dec 2010
    โพสต์
    108,714
    Thanks
    7
    Thanked 113,730 Times in 52,424 Posts

    Question (ฝรั่ง.ใหม่.พากย์ไทยมาสเตอร์)-American Woman (2018)-[BluRay.1080p][Sound:Eng AC3 5.1/Thai AC3 5.1:Master ][SUB:Eng/Thai.PGS]




    หนังเล่าเรื่องเกี่ยวกับชนชั้นแรงงาน "เดบรา" อดีตเด็กสก๊อยใจแตก ปากจัด ที่พลาดท่าท้องจนมีลูกตั้งแต่อายุ 16 จนกลายเป็นคุณแม่เลี้ยงเดี่ยว เป็นสาวเสิร์ฟเลี้ยงลูกไปวันๆ มีงานอดิเรกคือการเป็นเมียน้อยกับสามีชาวบ้าน โดยหวังลมๆแล้งๆว่าจะมีผู้ชายมารักจริงจัง

    จนเมื่อ บริดเจ็ต ลูกสาวโตจนอายุ 16 ก็เจริญตามรอยแม่ ด้วยการมีลูกในวัยเรียนด้วยเช่นกัน ทำให้เดบรา ต้องมีสถานะเป็นคุณยายด้วยวัยแค่ 32 ปี
    โดยมีครอบครัวของพี่สาว อาศัยอยู่บ้านตรงกันข้าม และแม่ที่แวะเวียนมาเยี่ยมสม่ำเสมอ คอยช่วยเหลือเป็นระยะ
    หนังเล่าเรื่องอย่างรวดเร็ว จนถึงคืนหนึ่ง บริดเจ็ต ออกไปเที่ยวกับ ไทเลอร์ แฟนเก่า(พ่อของเด็ก) แล้วหายตัวไปอย่างไร้ร่องรอย ทิ้งลูกน้อย"เจสซี่" ไว้ให้ยายเลี้ยงตามลำพัง

    Format : Matroska
    Format version : Version 4
    File size : 3.92 GiB
    Duration : 1 h 51 min
    Overall bit rate : 5 018 kb/s
    Movie name : American.Woman.2018.1080p.BluRay.x264-ฉGOLD CUP™
    Video
    ID : 1
    Format : AVC
    Format/Info : Advanced Video Codec
    Format profile : [email protected]
    Format settings : CABAC / 1 Ref Frames
    Format settings, CABAC : Yes
    Format settings, Reference : 1 frame
    Format settings, GOP : M=1, N=25
    Codec ID : V_MPEG4/ISO/AVC
    Duration : 1 h 51 min
    Bit rate mode : Constant
    Bit rate : 4 000 kb/s
    Width : 1 920 pixels
    Height : 800 pixels
    Display aspect ratio : 2.40:1
    Frame rate mode : Constant
    Frame rate : 29.970 (30000/1001) FPS
    Color space : YUV
    Chroma subsampling : 4:2:0
    Bit depth : 8 bits
    Scan type : Progressive
    Bits/(Pixel*Frame) : 0.087
    Stream size : 3.12 GiB (80%)
    Title : American.Woman.2018.1080p.BluRay.x264-ฉGOLD CUP™
    Language : English
    Default : Yes
    Forced : No

    Audio #1
    ID : 2
    Format : AC-3
    Format/Info : Audio Coding 3
    Commercial name : Dolby Digital
    Codec ID : A_AC3
    Duration : 1 h 51 min
    Bit rate mode : Constant
    Bit rate : 320 kb/s
    Channel(s) : 6 channels
    Channel layout : L R C LFE Ls Rs
    Sampling rate : 44.1 kHz
    Frame rate : 28.711 FPS (1536 SPF)
    Compression mode : Lossy
    Stream size : 256 MiB (6%)
    Title : 5.1 AC3 TH 320k 256m-ฉGOLD CUP™
    Language : Thai
    Service kind : Complete Main
    Default : Yes
    Forced : No

    Audio #2
    ID : 3
    Format : AC-3
    Format/Info : Audio Coding 3
    Commercial name : Dolby Digital
    Codec ID : A_AC3
    Duration : 1 h 51 min
    Bit rate mode : Constant
    Bit rate : 640 kb/s
    Channel(s) : 6 channels
    Channel layout : L R C LFE Ls Rs
    Sampling rate : 44.1 kHz
    Frame rate : 28.711 FPS (1536 SPF)
    Compression mode : Lossy
    Stream size : 512 MiB (13%)
    Title : 5.1 AC3 En 640k 512m-ฉGOLD CUP™
    Language : English
    Service kind : Complete Main
    Default : No
    Forced : No

    Text #1
    ID : 4
    Format : PGS
    Muxing mode : zlib
    Codec ID : S_HDMV/PGS
    Codec ID/Info : Picture based subtitle format used on BDs/HD-DVDs
    Duration : 1 h 51 min
    Bit rate : 29.2 kb/s
    Count of elements : 2298
    Stream size : 23.3 MiB (1%)
    Title : (Thai)PGS[White]-ฉGOLD CUP™
    Language : Thai
    Default : Yes
    Forced : No

    Text #2
    ID : 5
    Format : PGS
    Muxing mode : zlib
    Codec ID : S_HDMV/PGS
    Codec ID/Info : Picture based subtitle format used on BDs/HD-DVDs
    Duration : 1 h 47 min
    Bit rate : 32.3 kb/s
    Count of elements : 3146
    Stream size : 24.7 MiB (1%)
    Title : PGS-EN[yellow]-ฉGOLD CUP™
    Language : English
    Default : No
    Forced : No

    Text #3
    ID : 6
    Format : PGS
    Muxing mode : zlib
    Codec ID : S_HDMV/PGS
    Codec ID/Info : Picture based subtitle format used on BDs/HD-DVDs
    Duration : 1 h 47 min
    Bit rate : 37.4 kb/s
    Count of elements : 3582
    Stream size : 28.7 MiB (1%)
    Title : SDH=ผู้บกพร่องทางเสียง.PGS-ฉGOLD CUP™
    Language : English
    Default : No
    Forced : No





    Download: cornfile
    http://cornfile.com/izn8n5lszt6b
    Download: mekafile
    http://www.mekafile.com/dl.php?f=Aq2151c1mjes

  2. The Following 2 Users Say Thank You to Duckload.us For This Useful Post:

    apichartdear (11-11-2019), Wesker_TOT (11-10-2019)

  3. #2
    Senior Member
    สมัครเมื่อ
    Jun 2014
    โพสต์
    1,505
    Thanks
    0
    Thanked 0 Times in 0 Posts
    ขอบคุณครับ

+ ตอบกลับกระทู้

ข้อมูลกระทู้

Users Browsing this Thread

ในขณะนี้มี 1 ท่านดูกระทู้อยู่. (0 สมาชิกและ 1 ผู้เยี่ยมชม)

     

กฎการโพสต์ข้อความ

  • ท่าน ไม่สามารถ ตั้งกระทู้ใหม่ได้
  • ท่าน ไม่สามารถ ตอบกระทู้ได้
  • ท่าน ไม่สามารถ แนบไฟล์ได้
  • ท่าน ไม่สามารถ แก้ไขข้อความโพสต์ได้
  • BB code สถานะ เปิด
  • Smilies สถานะ เปิด
  • [IMG] สถานะ เปิด
  • HTML สถานะ ปิด