+ ตอบกลับกระทู้
สรุปผลการค้นหา 1 ถึง 2 จากทั้งหมด 2
  1. #1
    Administrators รูปส่วนตัว Duckload.us
    สมัครเมื่อ
    Dec 2010
    โพสต์
    108,714
    Thanks
    7
    Thanked 113,730 Times in 52,424 Posts

    Question [ฝรั่ง]-[V1] THE ADDAMS FAMILY (2019) ตระกูลนี้ผียังหลบ 720p พากย์ไทยโรง- [หนังซูม]-[พากย์ไทยโรง]




    เรื่องย่อ The Addams Family ตระกูลนี้ผียังหลบ
    เตรียมตัวเคาะนิ้วไปกับครอบครัวแอดดัมส์ พบกับ The Addams Family ตระกูลนี้ผียังหลบ อนิเมชั่นสุดฮาเกี่ยวกับครอบครัวประหลาดไม่เหมือนใคร พวกเขาให้คำจำกัดความของเพื่อนบ้านที่ดีที่แตกต่างออ กไปจากที่ผ่านมา

    Format : MPEG-4
    Format profile : Base Media
    Codec ID : isom (isom/iso2/avc1/mp41)
    File size : 748 MiB
    Duration : 1 h 18 min
    Overall bit rate : 1 333 kb/s
    Writing application : Lavf58.26.101

    Video
    ID : 1
    Format : AVC
    Format/Info : Advanced Video Codec
    Format profile : [email protected]
    Format settings : CABAC / 4 Ref Frames
    Format settings, CABAC : Yes
    Format settings, Reference frames : 4 frames
    Codec ID : avc1
    Codec ID/Info : Advanced Video Coding
    Duration : 1 h 18 min
    Bit rate : 1 200 kb/s
    Width : 1 280 pixels
    Height : 640 pixels
    Display aspect ratio : 2.000
    Frame rate mode : Constant
    Frame rate : 24.000 FPS
    Color space : YUV
    Chroma subsampling : 4:2:0
    Bit depth : 8 bits
    Scan type : Progressive
    Bits/(Pixel*Frame) : 0.061
    Stream size : 673 MiB (90%)
    Title : ISO Media file produced by Google Inc. Created on: 11/03/2019.
    Writing library : x264 core 157
    Encoding settings : cabac=1 / ref=1 / deblock=1:0:0 / analyse=0x3:0x3 / me=dia / subme=1 / psy=1 / psy_rd=1.00:0.00 / mixed_ref=0 / me_range=16 / chroma_me=1 / trellis=0 / 8x8dct=1 / cqm=0 / deadzone=21,11 / fast_pskip=1 / chroma_qp_offset=0 / threads=15 / lookahead_threads=2 / sliced_threads=0 / nr=0 / decimate=1 / interlaced=0 / bluray_compat=0 / constrained_intra=0 / bframes=3 / b_pyramid=2 / b_adapt=1 / b_bias=0 / direct=1 / weightb=1 / open_gop=0 / weightp=1 / keyint=250 / keyint_min=24 / scenecut=40 / intra_refresh=0 / rc=2pass / mbtree=0 / bitrate=1200 / ratetol=1.0 / qcomp=0.60 / qpmin=0 / qpmax=69 / qpstep=4 / cplxblur=20.0 / qblur=0.5 / ip_ratio=1.40 / pb_ratio=1.30 / aq=1:1.00
    Codec configuration box : avcC

    Audio
    ID : 2
    Format : AAC LC
    Format/Info : Advanced Audio Codec Low Complexity
    Codec ID : mp4a-40-2
    Duration : 1 h 18 min
    Duration_LastFrame : -10 ms
    Bit rate mode : Constant
    Bit rate : 128 kb/s
    Channel(s) : 2 channels
    Channel layout : L R
    Sampling rate : 48.0 kHz
    Frame rate : 46.875 FPS (1024 SPF)
    Compression mode : Lossy
    Stream size : 71.8 MiB (10%)
    Title : ISO Media file produced by Google Inc. Created on: 11/03/2019.
    Default : Yes
    Alternate group : 1






    Download: cornfile
    http://cornfile.com/3sqxmr4phzsb
    Download: mekafile
    http://www.mekafile.com/dl.php?f=0Xe8dcc1mlVT

  2. #2
    Senior Member
    สมัครเมื่อ
    Jun 2014
    โพสต์
    1,505
    Thanks
    0
    Thanked 0 Times in 0 Posts
    ขอบคุณครับ

+ ตอบกลับกระทู้

ข้อมูลกระทู้

Users Browsing this Thread

ในขณะนี้มี 1 ท่านดูกระทู้อยู่. (0 สมาชิกและ 1 ผู้เยี่ยมชม)

     

กฎการโพสต์ข้อความ

  • ท่าน ไม่สามารถ ตั้งกระทู้ใหม่ได้
  • ท่าน ไม่สามารถ ตอบกระทู้ได้
  • ท่าน ไม่สามารถ แนบไฟล์ได้
  • ท่าน ไม่สามารถ แก้ไขข้อความโพสต์ได้
  • BB code สถานะ เปิด
  • Smilies สถานะ เปิด
  • [IMG] สถานะ เปิด
  • HTML สถานะ ปิด