+ ตอบกลับกระทู้
สรุปผลการค้นหา 1 ถึง 4 จากทั้งหมด 4
  1. #1
    Administrators รูปส่วนตัว Duckload.us
    สมัครเมื่อ
    Dec 2010
    โพสต์
    108,714
    Thanks
    7
    Thanked 113,730 Times in 52,424 Posts

    Question (จีน)-THE UNTAMED THE LIVING DEAD (2019) ปรมาจารย์ลัทธิมาร ชีวิตแห่งความตาย-[Web Dl.1080p][Sound:Chi AC3 5.1Master][Hard Sub:Chi/Eng/Thai]




    ภาพยนตร์นี้ได้จัดขึ้นตามนิวคิดของละครคลาสสิคที่มีช ื่อเสียง ปรมาจารย์ลัทธิมาร เรื่องนี้ได้เกิดขึ้นในเมืองที่ใกล้กับภูเขาฉี แถวนั้นมีเมืองฝูเฟิง ซึ่งได้ขึ้นชื่อว่าเป็นอาณาจักรสวรรค์ที่ไม่มีช่วงกล างคืน แต่ก่อน เมืองแห่งนี้เต็มไปด้วยโคมไฟดอกไม้ แสงแวบไปทุกที่ กลางคืนกลายเป็นกลางวัน แต่ตอนนี้ถูกบกบังด้วยความมืด มีตำนานที่เล่าลือกัน ซึ่งได้แก่ จุดไฟ ฆ่าคน เวินหนิงกับหลานซือจุยจะประสบเรื่องที่น่าแปลกใจอย่า งไรบ้างล่ะ

    Format : Matroska
    Format version : Version 4
    File size : 3.60 GiB
    Duration : 1 h 23 min
    Overall bit rate mode : Constant
    Overall bit rate : 6 139 kb/s
    Movie name : The Untamed The Living Dead (2019) 1080p_ฉGOLD CUP™
    Encoded date : UTC 2019-11-12 03:20:51
    Writing application : mkvmerge v40.0.0 ('Old Town Road + Pony') 64-bit
    Writing library : libebml v1.3.9 + libmatroska v1.5.2
    Cover : Yes
    Attachments : cover.jpg

    Video
    ID : 1
    Format : AVC
    Format/Info : Advanced Video Codec
    Format profile : [email protected]
    Format settings : CABAC / 1 Ref Frames
    Format settings, CABAC : Yes
    Format settings, Reference frames : 1 frame
    Format settings, GOP : M=1, N=25
    Codec ID : V_MPEG4/ISO/AVC
    Duration : 1 h 23 min
    Bit rate mode : Constant
    Bit rate : 5 500 kb/s
    Width : 1 920 pixels
    Height : 800 pixels
    Display aspect ratio : 2.40:1
    Frame rate mode : Constant
    Frame rate : 29.970 (30000/1001) FPS
    Color space : YUV
    Chroma subsampling : 4:2:0
    Bit depth : 8 bits
    Scan type : Progressive
    Bits/(Pixel*Frame) : 0.119
    Stream size : 3.22 GiB (90%)
    Title : The Untamed The Living Dead (2019) 1080p_ฉGOLD CUP™
    Language : Chinese
    Default : Yes
    Forced : No

    Audio
    ID : 2
    Format : AC-3
    Format/Info : Audio Coding 3
    Commercial name : Dolby Digital
    Codec ID : A_AC3
    Duration : 1 h 23 min
    Bit rate mode : Constant
    Bit rate : 640 kb/s
    Channel(s) : 6 channels
    Channel layout : L R C LFE Ls Rs
    Sampling rate : 44.1 kHz
    Frame rate : 28.711 FPS (1536 SPF)
    Bit depth : 16 bits
    Compression mode : Lossy
    Stream size : 384 MiB (10%)
    Title : 5.1 AC3 Chi 640k 384m
    Language : Chinese
    Service kind : Complete Main
    Default : Yes
    Forced : No





    Download: cornfile
    http://cornfile.com/kja8qcfd760b
    Download: mekafile
    http://www.mekafile.com/dl.php?f=xdff66c1rwwo

  2. The Following 2 Users Say Thank You to Duckload.us For This Useful Post:

    Ingift (11-13-2019), noi54 (11-13-2019)

  3. #2
    Senior Member
    สมัครเมื่อ
    Jun 2014
    โพสต์
    1,505
    Thanks
    0
    Thanked 0 Times in 0 Posts
    ขอบคุณครับ

  4. #3
    Junior Member
    สมัครเมื่อ
    Nov 2019
    โพสต์
    11
    Thanks
    4
    Thanked 0 Times in 0 Posts
    ขอบคุณค่าา มาไวมากเลยย

  5. #4
    Member
    สมัครเมื่อ
    Mar 2014
    โพสต์
    32
    Thanks
    24
    Thanked 0 Times in 0 Posts
    cornfile แจ้ง 182 โหลดไม่ได้ค่ะ ยังไงรบกวนแก้ไขให้หน่อยนะคะ ขอบคุณค่ะ

+ ตอบกลับกระทู้

ข้อมูลกระทู้

Users Browsing this Thread

ในขณะนี้มี 1 ท่านดูกระทู้อยู่. (0 สมาชิกและ 1 ผู้เยี่ยมชม)

     

กฎการโพสต์ข้อความ

  • ท่าน ไม่สามารถ ตั้งกระทู้ใหม่ได้
  • ท่าน ไม่สามารถ ตอบกระทู้ได้
  • ท่าน ไม่สามารถ แนบไฟล์ได้
  • ท่าน ไม่สามารถ แก้ไขข้อความโพสต์ได้
  • BB code สถานะ เปิด
  • Smilies สถานะ เปิด
  • [IMG] สถานะ เปิด
  • HTML สถานะ ปิด