+ ตอบกลับกระทู้
สรุปผลการค้นหา 1 ถึง 2 จากทั้งหมด 2
  1. #1
    Administrators รูปส่วนตัว Duckload.us
    สมัครเมื่อ
    Dec 2010
    โพสต์
    108,513
    Thanks
    7
    Thanked 113,462 Times in 52,350 Posts

    Question [อินเดีย] *ใหม่* [ซับไทย 1080p master] Hindi Medium (2017) : อินดี มีเดียม [Hindi AC3 640 kbps 5.1+บรรยายไทย PGS]-Blu-ray.H.264.1080p. [Master]-[Soundtrack บรรยายไทย]





    Hindi Medium



    Rating: 7.8/10 Year: 2017 Genres: Comedy / Drama Runtime: 132 min Language: Hindi Director: Saket Chaudhary Writers: Sonu Sinha / Saket Chaudhary / Amitosh Nagpal Cast: Irrfan Khan / Saba Qamar / Dishita Sehgalโ€ฆ Plot:

    n/A


    *** เรื่องย่อ ********************************
    /// Soundtrack Hindi AC-3 5.1 + บรรยายไทย เท่านั้น /// /// Soundtrack Hindi AC-3 5.1 + บรรยายไทย เท่านั้น ///

    ราช (อิร์ฟาน ข่าน - Irrfan Khan) อดีตเด็กหนุ่มช่างตัดเสื้อชนชั้นกลางที่หลงรัก มิตี้ (ซาบา คามาร์ - Saba Qamar) สาวสวยหัวสมัยใหม่
    เขาทำทุกอย่างให้เธอยิ้มได้และมีความสุข

    หลายปีต่อๆ มา ราช และมิตี้ แต่งงาน มีลูกด้วยกัน และมีร้านเสื้อผ้าใหญ่โตอยู่ในย่านเมืองเก่าของเดลี (Delhi) มิตี้อยากให้ เปีย ลูกสาวคนเดียว
    ของพวกเขาเข้าเรียนในโรงเรียนที่ดีที่สุดในเดลี แต่การที่เด็กคนหนึ่งจะผ่านการคัดตัวเพื่อให้ได้เข้า เรียนในโรงเรียนเกรดเอของเดลีนั้นยากยิ่งกว่าถูกลอตเ ตอรี่ซะอีก
    และอีกนั่นแหล่ะ ราช จึงทำทุกวิถีทาง ทั้งย้ายบ้าน เปลี่ยนสังคม โกหก ทั้งโกง สารพัดรูปแบบเพื่อให้ลูกสาวของเขาได้เข้าไปในโรงเรีย นที่ (ภรรยาของเขาว่า) ดีที่สุด
    และเพื่อให้มิตี้ภรรยาคนสวยยิ้มได้และมีความสุข


    Code:
    General
    Unique ID                                : 58488974979890411212335911547045993030 (0x2C00911BF82875BA957250353150DA46)
    Complete name                            : Hindi.Medium(2017)[email protected]
    Format                                   : Matroska
    Format version                           : Version 4
    File size                                : 4.48 GiB
    Duration                                 : 2 h 12 min
    Overall bit rate                         : 4 854 kb/s
    Movie name                               : Hindi Medium 2017  Hindi 1080p BluRay x264 AC3 5.1 ESub
    Encoded date                             : UTC 2019-11-10 03:55:58
    Writing application                      : mkvmerge v40.0.0 ('Old Town Road + Pony') 64-bit
    Writing library                          : libebml v1.3.9 + libmatroska v1.5.2
    
    Video
    ID                                       : 1
    Format                                   : AVC
    Format/Info                              : Advanced Video Codec
    Format profile                           : [email protected]
    Format settings                          : CABAC / 5 Ref Frames
    Format settings, CABAC                   : Yes
    Format settings, Reference frames        : 5 frames
    Codec ID                                 : V_MPEG4/ISO/AVC
    Duration                                 : 2 h 12 min
    Bit rate                                 : 4 092 kb/s
    Width                                    : 1 920 pixels
    Height                                   : 800 pixels
    Display aspect ratio                     : 2.40:1
    Frame rate mode                          : Constant
    Frame rate                               : 24.000 FPS
    Color space                              : YUV
    Chroma subsampling                       : 4:2:0
    Bit depth                                : 8 bits
    Scan type                                : Progressive
    Bits/(Pixel*Frame)                       : 0.111
    Stream size                              : 3.78 GiB (84%)
    Writing library                          : x264 core 150 r2833 df79067
    Language                                 : English
    Default                                  : Yes
    Forced                                   : No
    
    Audio
    ID                                       : 2
    Format                                   : AC-3
    Format/Info                              : Audio Coding 3
    Commercial name                          : Dolby Digital
    Codec ID                                 : A_AC3
    Duration                                 : 2 h 12 min
    Bit rate mode                            : Constant
    Bit rate                                 : 640 kb/s
    Channel(s)                               : 6 channels
    Channel layout                           : L R C LFE Ls Rs
    Sampling rate                            : 48.0 kHz
    Frame rate                               : 31.250 FPS (1536 SPF)
    Compression mode                         : Lossy
    Stream size                              : 605 MiB (13%)
    Title                                    : AC3 5.1 640 kbps
    Language                                 : Hindi
    Service kind                             : Complete Main
    Default                                  : Yes
    Forced                                   : No
    
    Text #1
    ID                                       : 3
    Format                                   : VobSub
    Muxing mode                              : zlib
    Codec ID                                 : S_VOBSUB
    Codec ID/Info                            : Picture based subtitle format used on DVDs
    Duration                                 : 2 h 10 min
    Bit rate                                 : 15.5 kb/s
    Count of elements                        : 2352
    Stream size                              : 14.5 MiB (0%)
    Title                                    : Vob 1080p
    Language                                 : Thai
    Default                                  : No
    Forced                                   : No
    
    Text #2
    ID                                       : 4
    Format                                   : VobSub
    Muxing mode                              : zlib
    Codec ID                                 : S_VOBSUB
    Codec ID/Info                            : Picture based subtitle format used on DVDs
    Duration                                 : 2 h 10 min
    Bit rate                                 : 15.5 kb/s
    Count of elements                        : 2352
    Stream size                              : 14.5 MiB (0%)
    Title                                    : Vob 1080p yellow
    Language                                 : Thai
    Default                                  : No
    Forced                                   : No
    
    Text #3
    ID                                       : 5
    Format                                   : VobSub
    Muxing mode                              : zlib
    Codec ID                                 : S_VOBSUB
    Codec ID/Info                            : Picture based subtitle format used on DVDs
    Duration                                 : 2 h 10 min
    Bit rate                                 : 15.5 kb/s
    Count of elements                        : 2352
    Stream size                              : 14.5 MiB (0%)
    Title                                    : Vob 1080p low
    Language                                 : Thai
    Default                                  : Yes
    Forced                                   : No
    
    Text #4
    ID                                       : 6
    Format                                   : PGS
    Muxing mode                              : zlib
    Codec ID                                 : S_HDMV/PGS
    Codec ID/Info                            : Picture based subtitle format used on BDs/HD-DVDs
    Duration                                 : 2 h 10 min
    Bit rate                                 : 71.5 kb/s
    Count of elements                        : 4720
    Stream size                              : 66.9 MiB (1%)
    Title                                    : PGS 1080p
    Language                                 : Thai
    Default                                  : No
    Forced                                   : No
    
    Text #5
    ID                                       : 7
    Format                                   : PGS
    Muxing mode                              : zlib
    Codec ID                                 : S_HDMV/PGS
    Codec ID/Info                            : Picture based subtitle format used on BDs/HD-DVDs
    Duration                                 : 2 h 10 min
    Bit rate                                 : 71.5 kb/s
    Count of elements                        : 4720
    Stream size                              : 66.9 MiB (1%)
    Title                                    : PGS 1080p yellow
    Language                                 : Thai
    Default                                  : No
    Forced                                   : No
    
    Text #6
    ID                                       : 8
    Format                                   : PGS
    Muxing mode                              : zlib
    Codec ID                                 : S_HDMV/PGS
    Codec ID/Info                            : Picture based subtitle format used on BDs/HD-DVDs
    Duration                                 : 2 h 10 min
    Bit rate                                 : 71.5 kb/s
    Count of elements                        : 4720
    Stream size                              : 66.9 MiB (1%)
    Title                                    : PGS 1080p low
    Language                                 : Thai
    Default                                  : No
    Forced                                   : No
    
    Text #7
    ID                                       : 9
    Format                                   : UTF-8
    Codec ID                                 : S_TEXT/UTF8
    Codec ID/Info                            : UTF-8 Plain Text
    Duration                                 : 2 h 10 min
    Bit rate                                 : 183 b/s
    Count of elements                        : 2360
    Stream size                              : 176 KiB (0%)
    Title                                    : Thai Text
    Language                                 : Thai
    Default                                  : No
    Forced                                   : No
    
    Text #8
    ID                                       : 10
    Format                                   : UTF-8
    Codec ID                                 : S_TEXT/UTF8
    Codec ID/Info                            : UTF-8 Plain Text
    Duration                                 : 2 h 12 min
    Bit rate                                 : 79 b/s
    Count of elements                        : 2362
    Stream size                              : 76.5 KiB (0%)
    Title                                    : Engliah Text
    Language                                 : English
    Default                                  : No
    Forced                                   : No







    Download: cornfile
    http://cornfile.com/7w8lv7vo3cfa
    Download: mekafile
    http://www.mekafile.com/dl.php?f=D08080c1tt9F

  2. #2
    Member
    สมัครเมื่อ
    Jul 2013
    โพสต์
    85
    Thanks
    0
    Thanked 0 Times in 0 Posts
    ขอบคุณครับผม

+ ตอบกลับกระทู้

ข้อมูลกระทู้

Users Browsing this Thread

ในขณะนี้มี 1 ท่านดูกระทู้อยู่. (0 สมาชิกและ 1 ผู้เยี่ยมชม)

     

กฎการโพสต์ข้อความ

  • ท่าน ไม่สามารถ ตั้งกระทู้ใหม่ได้
  • ท่าน ไม่สามารถ ตอบกระทู้ได้
  • ท่าน ไม่สามารถ แนบไฟล์ได้
  • ท่าน ไม่สามารถ แก้ไขข้อความโพสต์ได้
  • BB code สถานะ เปิด
  • Smilies สถานะ เปิด
  • [IMG] สถานะ เปิด
  • HTML สถานะ ปิด