+ ตอบกลับกระทู้
สรุปผลการค้นหา 1 ถึง 1 จากทั้งหมด 1
  1. #1
    Administrators รูปส่วนตัว Duckload.us
    สมัครเมื่อ
    Dec 2010
    โพสต์
    108,468
    Thanks
    7
    Thanked 113,454 Times in 52,348 Posts

    Question [ ฝรั่ง ฉ.20]-((> x265<)) Midsommar (2019) : เทศกาลสยอง [พากย์ไทย 5.1 + เสียงอังกฤษ DTS-HD MA 5.1]-[บรรยายไทย + อังกฤษ]-[เสียงไทย + ซับไทย From MASTER +ซับ PGS คมชัด]



    Midsommar_(2019)
    “ดานี” และ “คริสเตียน” คู่รักที่เดินทางมายังประเทศสวีเดนตามคำชักชวนของเพื ่อนร่วมมหา'ลัย ที่นั่นพวกเขาและเพื่อนๆ
    วางแผนที่จะไปเที่ยวเทศกาลเฉลิมฉลองฤดูร้อนในหมู่บ้า นที่อยู่ห่างไกลและร้างไร้ผู้คน เทศกาลนี้จะจัดขึ้นเพียง 1 ครั้งในรอบ 90 ปี เป็นเวลา 9 วัน
    และเป็น 9 วันที่พระอาทิตย์ไม่เคยตกดิน แต่ยิ่งพวกเขาคลุกคลีอยู่กับดินแดนที่เหมือนจะสดใสแห ่งนี้เท่าไร
    ก็ยิ่งค้นพบเรื่องราวสุดแปลกประหลาด และชวนขนหัวลุกขึ้นเรื่อยๆ และกว่าจะรู้ตัวก็แทบจะสายเกินไป!!!
    •
    •
    “Midsommar” เป็นผลงานการกำกับเรื่องที่ 2 ของ “แอรี แอสเตอร์” ผู้กำกับ “Hereditary กรรมพันธุ์สยอง”
    หนังสยองขวัญครอบครัวสุดหลอนที่เข้าฉายเมื่อปี 2018 และได้รับคำชมมหาศาล ติดอันดับหนังยอดเยี่ยมแห่งปีจากหลายสำนัก
    หนังได้นักแสดงดาวรุ่งหลายคนมารับบทนำ ไม่ว่าจะเป็น “ฟลอเรนซ์ พิวจ์” จาก Fighting with My Family (2019),
    “วิล โพลเทอร์” จาก The Maze Runner (2014) และ “แจ็ก เรย์เนอร์” จาก Transformers: Age of Extinction (2014)
    •
    •
    หนึ่งในฉากสำคัญของ “Midsommar” ที่ปรากฏในตัวอย่างคือ ฉากรับประทานอาหารมื้อสุดท้าย (The Last Supper) “แจ็ก เรย์เนอร์” ผู้รับบทเป็น “คริสเตียน”
    กล่าวถึงตัวละครชาวบ้านผู้เข้าร่วมพิธีกรรมศักดิ์สิท ธิ์ในหนังเรื่องนี้เอาไว้ว่า “คนพวกนี้โคตรน่าขนลุกสุดๆ และคนดูจะต้องเอาใจช่วยพวกเราไปตลอดทั้งเรื่องแน่ๆ”

    Code:
    Format                      : Matroska
    Format version              : Version 4 / Version 2
    File size                   : 14.9 GiB
    Duration                    : 2 h 27 min
    Overall bit rate            : 14.5 Mb/s
    Movie name                  : Midsommar.2019.1080p.BluRay.DTS-HD MA [email protected]
    
    Video
    ID                          : 1
    Format                      : HEVC
    Format/Info                 : High Efficiency Video Coding
    Format profile              : Main [email protected]@High
    Codec ID                    : V_MPEGH/ISO/HEVC
    Duration                    : 2 h 27 min
    Bit rate                    : 9 162 kb/s
    Width                       : 1 800 pixels
    Height                      : 956 pixels
    Display aspect ratio        : 1.883
    Frame rate mode             : Constant
    Frame rate                  : 23.976 (24000/1001) FPS
    Color space                 : YUV
    Chroma subsampling          : 4:2:0
    Bit depth                   : 10 bits
    Bits/(Pixel*Frame)          : 0.222
    Stream size                 : 9.41 GiB (63%)
    Title                       : Midsommar.2019.1080p.BluRay.DTS-HD MA [email protected]
    Writing library             : x265 - H.265/HEVC codec
    Language                    : English
    Default                     : Yes
    Forced                      : No
    
    Audio #1
    ID                          : 2
    Format                      : AC-3
    Format/Info                 : Audio Coding 3
    Format settings, Endianness : Big
    Codec ID                    : A_AC3
    Duration                    : 2 h 27 min
    Bit rate mode               : Constant
    Bit rate                    : 448 kb/s
    Channel(s)                  : 6 channels
    Channel positions           : Front: L C R, Side: L R, LFE
    Sampling rate               : 48.0 kHz
    Frame rate                  : 31.250 FPS (1536 spf)
    Bit depth                   : 16 bits
    Compression mode            : Lossy
    Stream size                 : 471 MiB (3%)
    Title                       : Thai DVD Master
    Language                    : Thai
    Service kind                : Complete Main
    Default                     : Yes
    Forced                      : Yes
    
    Audio #2
    ID                          : 3
    Format                      : DTS
    Format/Info                 : Digital Theater Systems
    Format profile              : MA / Core
    Mode                        : 16
    Format settings, Endianness : Big
    Codec ID                    : A_DTS
    Duration                    : 2 h 27 min
    Bit rate mode               : Variable / Constant
    Bit rate                    : 3 331 kb/s / 1 509 kb/s
    Channel(s)                  : 6 channels
    Channel positions           : Front: L C R, Side: L R, LFE
    Sampling rate               : 48.0 kHz
    Frame rate                  : 93.750 FPS (512 spf)
    Bit depth                   : 24 bits
    Compression mode            : Lossless / Lossy
    Stream size                 : 3.42 GiB (23%)
    Title                       : English DTS-HD MA 5.1
    Language                    : English
    Default                     : No
    Forced                      : No
    
    Audio #3
    ID                          : 4
    Format                      : DTS
    Format/Info                 : Digital Theater Systems
    Mode                        : 16
    Format settings, Endianness : Big
    Codec ID                    : A_DTS
    Duration                    : 2 h 27 min
    Bit rate mode               : Constant
    Bit rate                    : 1 509 kb/s
    Channel(s)                  : 6 channels
    Channel positions           : Front: L C R, Side: L R, LFE
    Sampling rate               : 48.0 kHz
    Frame rate                  : 93.750 FPS (512 spf)
    Bit depth                   : 24 bits
    Compression mode            : Lossy
    Stream size                 : 1.55 GiB (10%)
    Title                       : English
    Language                    : English
    Default                     : No
    Forced                      : No
    
    Text #1
    ID                          : 5
    Format                      : VobSub
    Muxing mode                 : zlib
    Codec ID                    : S_VOBSUB
    Codec ID/Info               : Picture based subtitle format used on DVDs
    Duration                    : 2 h 22 min
    Bit rate                    : 2 151 b/s
    Count of elements           : 1153
    Stream size                 : 2.19 MiB (0%)
    Title                       : Thai 720p
    Language                    : Thai
    Default                     : No
    Forced                      : No
    
    Text #2
    ID                          : 6
    Format                      : VobSub
    Muxing mode                 : zlib
    Codec ID                    : S_VOBSUB
    Codec ID/Info               : Picture based subtitle format used on DVDs
    Duration                    : 2 h 22 min
    Bit rate                    : 3 477 b/s
    Count of elements           : 1153
    Stream size                 : 3.55 MiB (0%)
    Title                       : Thai 1080p
    Language                    : Thai
    Default                     : Yes
    Forced                      : Yes
    
    Text #3
    ID                          : 7
    Format                      : VobSub
    Muxing mode                 : zlib
    Codec ID                    : S_VOBSUB
    Codec ID/Info               : Picture based subtitle format used on DVDs
    Duration                    : 2 h 22 min
    Bit rate                    : 4 547 b/s
    Count of elements           : 1153
    Stream size                 : 4.64 MiB (0%)
    Title                       : Thai 1080p BIG
    Language                    : Thai
    Default                     : No
    Forced                      : No
    
    Text #4
    ID                          : 8
    Format                      : VobSub
    Muxing mode                 : zlib
    Codec ID                    : S_VOBSUB
    Codec ID/Info               : Picture based subtitle format used on DVDs
    Duration                    : 2 h 22 min
    Bit rate                    : 3 472 b/s
    Count of elements           : 1153
    Stream size                 : 3.54 MiB (0%)
    Title                       : Thai 1080p Yellow
    Language                    : Thai
    Default                     : No
    Forced                      : No
    
    Text #5
    ID                          : 9
    Format                      : PGS
    Muxing mode                 : zlib
    Codec ID                    : S_HDMV/PGS
    Codec ID/Info               : Picture based subtitle format used on BDs/HD-DVDs
    Duration                    : 2 h 22 min
    Bit rate                    : 11.3 kb/s
    Count of elements           : 2306
    Stream size                 : 11.5 MiB (0%)
    Title                       : Thai PGS
    Language                    : Thai
    Default                     : No
    Forced                      : No
    
    Text #6
    ID                          : 10
    Format                      : PGS
    Muxing mode                 : zlib
    Codec ID                    : S_HDMV/PGS
    Codec ID/Info               : Picture based subtitle format used on BDs/HD-DVDs
    Duration                    : 2 h 22 min
    Bit rate                    : 11.5 kb/s
    Count of elements           : 2306
    Stream size                 : 11.7 MiB (0%)
    Title                       : Thai PGS Yellow
    Language                    : Thai
    Default                     : No
    Forced                      : No
    
    Text #7
    ID                          : 11
    Format                      : PGS
    Muxing mode                 : zlib
    Codec ID                    : S_HDMV/PGS
    Codec ID/Info               : Picture based subtitle format used on BDs/HD-DVDs
    Duration                    : 2 h 25 min
    Bit rate                    : 13.8 kb/s
    Count of elements           : 2900
    Stream size                 : 14.4 MiB (0%)
    Title                       : English
    Language                    : English
    Default                     : No
    Forced                      : No
    
    Menu
    00:00:00.000                : :Chapter 1
    00:12:34.712                : :Chapter 2
    00:18:06.877                : :Chapter 3
    00:25:15.222                : :Chapter 4
    00:33:35.722                : :Chapter 5
    00:40:56.955                : :Chapter 6
    00:49:23.669                : :Chapter 7
    00:57:14.765                : :Chapter 8
    01:05:52.740                : :Chapter 9
    01:12:59.083                : :Chapter 10
    01:20:37.041                : :Chapter 11
    01:33:58.591                : :Chapter 12
    01:41:34.171                : :Chapter 13
    01:53:50.365                : :Chapter 14
    02:02:22.961                : :Chapter 15
     02:14:07.039                : :Chapter 16














    Download: cornfile
    http://cornfile.com/f7yzfoi77ax1
    Download: mekafile
    http://www.mekafile.com/dl.php?f=4C4f16c1T9M0

  2. The Following User Says Thank You to Duckload.us For This Useful Post:

    kappa (เมื่อวานนี้)

+ ตอบกลับกระทู้

ข้อมูลกระทู้

Users Browsing this Thread

ในขณะนี้มี 1 ท่านดูกระทู้อยู่. (0 สมาชิกและ 1 ผู้เยี่ยมชม)

     

กฎการโพสต์ข้อความ

  • ท่าน ไม่สามารถ ตั้งกระทู้ใหม่ได้
  • ท่าน ไม่สามารถ ตอบกระทู้ได้
  • ท่าน ไม่สามารถ แนบไฟล์ได้
  • ท่าน ไม่สามารถ แก้ไขข้อความโพสต์ได้
  • BB code สถานะ เปิด
  • Smilies สถานะ เปิด
  • [IMG] สถานะ เปิด
  • HTML สถานะ ปิด