+ ตอบกลับกระทู้
สรุปผลการค้นหา 1 ถึง 5 จากทั้งหมด 5
  1. #1
    Administrators รูปส่วนตัว Duckload.us
    สมัครเมื่อ
    Dec 2010
    โพสต์
    109,916
    Thanks
    7
    Thanked 115,286 Times in 52,759 Posts

    Question [ฝรั่ง]-[60 FPS] U-571 (2000) ดิ่งเด็ดขั้วมหาอำนาจ - [พากย์ไทย+อังกฤษ] [บรรยายไทย+อังกฤษ] 1080p.x264.AC3.60FPS.OpenMatte



    ค.ศ. 1942 ในระหว่างสงครามโลกครั้งที่ 2 กองทัพเรือสหรัฐจับสัญญาณเรดาร์ได้ว่า เรือดำน้ำของนาซีเยอรมันรุ่น อู-571 (U-571) ลำหนึ่งจอดเสียลอยน้ำอยู่กลางมหาสมุทรแอตแลนติกเหนือ ที่สำคัญในเรือลำน้ำมีเครื่องส่งสัญญาณ อีนิกม่า (Enigma) อยู่ด้วย ซึ่งถ้ายึดเครื่องนี้มาได้จะเป็นจุดหักเหของยุทธบริเ วณมหาสมุทรแอตแลนติกเลยทีเดียว

    ดังนั้น ภารกิจพิเศษครั้งนี้จึงถูกกำหนดขึ้น เรือโท ไมค์ ดาห์ลเกร็น (บิลล์ แพ็กตัน) อดีตกัปตันเรือดำน้ำสมัยสงครามโลกครั้งที่ 1 ที่กำลังจะปลดระวางตนเอง ต้องกลับมาปฏิบัติหน้าที่อีกครั้ง โดยมี แอนดรูว์ ไทเลอร์ (แมทธิว แม็คคอนาเฮย์) นายทหารหนุ่มรุ่นน้องผู้คอยโอกาสที่จะขึ้นมาบังคับบั ญชาเรือดำน้ำเองเป็นผู้ช่วย โดยภารกิจครั้งนี้มีผู้ล่วงรู้เพียงไม่กี่คน ทั้งหมดจะต้องปลอมตัวเป็นทหารนาซีเยอรมันแสร้งเข้าไป ช่วยเหลือเรือ อู-571 ลำนั้นและยึดไว้ให้ได้ แต่ขณะที่ปฏิบัติการอันน่าระทึกอยู่นั้น กัปตันดาห์ลเกร็นก็ถูกระเบิดเสียชีวิตกลางทะเล ไทเลอร์จึงต้องขึ้นควบคุมเรือแทน และยังต้องนำพาเรือที่ทั้งเสียและเก่าครึลำนี้พร้อมด ้วยชีวิตนายทหารอีก 8 คน ที่บางคนเป็นเด็กหนุ่มเพิ่งจบชั้นมัธยมมาด้วยซ้ำฝ่าว ิกฤตต่าง ๆ ไปให้ได้ ทั้งการโจมตีจากทั้งฝ่ายเยอรมันและฝ่ายสหรัฐอเมริกาเ อง

    Code:
    Duration                                 : 1 h 56 min
    Overall bit rate                         : 27.0 Mb/s
    Encoded date                             : UTC 2019-11-25 18:54:55
    Writing application                      : mkvmerge v40.0.0 ('Old Town Road + Pony') 64-bit
    Writing library                          : libebml v1.3.9 + libmatroska v1.5.2
    Cover                                    : Yes
    Attachments                              : cover
    
    Video
    ID                                       : 1
    Format                                   : AVC
    Format/Info                              : Advanced Video Codec
    Format profile                           : [email protected]
    Format settings                          : CABAC / 4 Ref Frames
    Format settings, CABAC                   : Yes
    Format settings, Reference frames        : 4 frames
    Codec ID                                 : V_MPEG4/ISO/AVC
    Duration                                 : 1 h 55 min
    Bit rate                                 : 25.9 Mb/s
    Width                                    : 1 920 pixels
    Height                                   : 1 080 pixels
    Display aspect ratio                     : 16:9
    Frame rate mode                          : Constant
    Frame rate                               : 60.000 FPS
    Color space                              : YUV
    Chroma subsampling                       : 4:2:0
    Bit depth                                : 8 bits
    Scan type                                : Progressive
    Bits/(Pixel*Frame)                       : 0.208
    Stream size                              : 21.0 GiB (96%)
    Writing library                          : x264 core 158 r2984 3759fcb
    Encoding settings                        : cabac=1 / ref=4 / deblock=1:-3:-3 / analyse=0x3:0x133 / me=umh / subme=10 / psy=1 / psy_rd=1.00:0.20 / mixed_ref=1 / me_range=32 / chroma_me=1 / trellis=2 / 8x8dct=1 / cqm=0 / deadzone=21,11 / fast_pskip=0 / chroma_qp_offset=-3 / threads=12 / lookahead_threads=1 / sliced_threads=0 / nr=0 / decimate=1 / interlaced=0 / bluray_compat=0 / constrained_intra=0 / bframes=4 / b_pyramid=2 / b_adapt=2 / b_bias=0 / direct=1 / weightb=1 / open_gop=0 / weightp=2 / keyint=250 / keyint_min=25 / scenecut=40 / intra_refresh=0 / rc_lookahead=60 / rc=crf / mbtree=1 / crf=18.0 / qcomp=0.70 / qpmin=0 / qpmax=69 / qpstep=4 / ip_ratio=1.40 / aq=1:1.00
    Language                                 : English
    Default                                  : Yes
    Forced                                   : No
    Color range                              : Limited
    Color primaries                          : BT.709
    Transfer characteristics                 : BT.709
    Matrix coefficients                      : BT.709
    
    Audio #1
    ID                                       : 2
    Format                                   : AC-3
    Format/Info                              : Audio Coding 3
    Commercial name                          : Dolby Digital
    Codec ID                                 : A_AC3
    Duration                                 : 1 h 55 min
    Bit rate mode                            : Constant
    Bit rate                                 : 640 kb/s
    Channel(s)                               : 6 channels
    Channel layout                           : L R C LFE Ls Rs
    Sampling rate                            : 48.0 kHz
    Frame rate                               : 31.250 FPS (1536 SPF)
    Bit depth                                : 16 bits
    Compression mode                         : Lossy
    Stream size                              : 531 MiB (2%)
    Language                                 : English
    Service kind                             : Complete Main
    Default                                  : No
    Forced                                   : No
    
    Audio #2
    ID                                       : 3
    Format                                   : AC-3
    Format/Info                              : Audio Coding 3
    Commercial name                          : Dolby Digital
    Codec ID                                 : A_AC3
    Duration                                 : 1 h 56 min
    Bit rate mode                            : Constant
    Bit rate                                 : 448 kb/s
    Channel(s)                               : 6 channels
    Channel layout                           : L R C LFE Ls Rs
    Sampling rate                            : 48.0 kHz
    Frame rate                               : 31.250 FPS (1536 SPF)
    Bit depth                                : 16 bits
    Compression mode                         : Lossy
    Stream size                              : 372 MiB (2%)
    Language                                 : Thai
    Service kind                             : Complete Main
    Default                                  : Yes
    Forced                                   : No
    
    Text #1
    ID                                       : 4
    Format                                   : VobSub
    Muxing mode                              : zlib
    Codec ID                                 : S_VOBSUB
    Codec ID/Info                            : Picture based subtitle format used on DVDs
    Duration                                 : 1 h 47 min
    Bit rate                                 : 10.5 kb/s
    Count of elements                        : 1118
    Stream size                              : 8.08 MiB (0%)
    Language                                 : English
    Default                                  : No
    Forced                                   : No
    
    Text #2
    ID                                       : 5
    Format                                   : UTF-8
    Codec ID                                 : S_TEXT/UTF8
    Codec ID/Info                            : UTF-8 Plain Text
    Duration                                 : 1 h 47 min
    Bit rate                                 : 51 b/s
    Count of elements                        : 1118
    Stream size                              : 40.7 KiB (0%)
    Language                                 : English
    Default                                  : No
    Forced                                   : No
    
    Text #3
    ID                                       : 6
    Format                                   : PGS
    Muxing mode                              : zlib
    Codec ID                                 : S_HDMV/PGS
    Codec ID/Info                            : Picture based subtitle format used on BDs/HD-DVDs
    Duration                                 : 1 h 47 min
    Bit rate                                 : 49.0 kb/s
    Count of elements                        : 2236
    Stream size                              : 37.8 MiB (0%)
    Title                                    : White
    Language                                 : English
    Default                                  : No
    Forced                                   : No
    
    Text #4
    ID                                       : 7
    Format                                   : PGS
    Muxing mode                              : zlib
    Codec ID                                 : S_HDMV/PGS
    Codec ID/Info                            : Picture based subtitle format used on BDs/HD-DVDs
    Duration                                 : 1 h 47 min
    Bit rate                                 : 49.0 kb/s
    Count of elements                        : 2236
    Stream size                              : 37.8 MiB (0%)
    Title                                    : Yellow
    Language                                 : English
    Default                                  : No
    Forced                                   : No
    
    Text #5
    ID                                       : 8
    Format                                   : PGS
    Muxing mode                              : zlib
    Codec ID                                 : S_HDMV/PGS
    Codec ID/Info                            : Picture based subtitle format used on BDs/HD-DVDs
    Duration                                 : 1 h 38 min
    Bit rate                                 : 20.9 kb/s
    Count of elements                        : 1864
    Stream size                              : 14.7 MiB (0%)
    Language                                 : English
    Default                                  : Yes
    Forced                                   : No
    
    Text #6
    ID                                       : 9
    Format                                   : VobSub
    Muxing mode                              : zlib
    Codec ID                                 : S_VOBSUB
    Codec ID/Info                            : Picture based subtitle format used on DVDs
    Duration                                 : 1 h 48 min
    Bit rate                                 : 8 117 b/s
    Count of elements                        : 1180
    Stream size                              : 6.31 MiB (0%)
    Language                                 : Thai
    Default                                  : No
    Forced                                   : No
    
    Text #7
    ID                                       : 10
    Format                                   : UTF-8
    Codec ID                                 : S_TEXT/UTF8
    Codec ID/Info                            : UTF-8 Plain Text
    Duration                                 : 1 h 48 min
    Bit rate                                 : 105 b/s
    Count of elements                        : 1180
    Stream size                              : 84.1 KiB (0%)
    Language                                 : Thai
    Default                                  : No
    Forced                                   : No
    
    Text #8
    ID                                       : 11
    Format                                   : PGS
    Muxing mode                              : zlib
    Codec ID                                 : S_HDMV/PGS
    Codec ID/Info                            : Picture based subtitle format used on BDs/HD-DVDs
    Duration                                 : 1 h 48 min
    Bit rate                                 : 37.8 kb/s
    Count of elements                        : 2360
    Stream size                              : 29.4 MiB (0%)
    Title                                    : White
    Language                                 : Thai
    Default                                  : No
    Forced                                   : No
    
    Text #9
    ID                                       : 12
    Format                                   : PGS
    Muxing mode                              : zlib
    Codec ID                                 : S_HDMV/PGS
    Codec ID/Info                            : Picture based subtitle format used on BDs/HD-DVDs
    Duration                                 : 1 h 48 min
    Bit rate                                 : 37.8 kb/s
    Count of elements                        : 2360
    Stream size                              : 29.4 MiB (0%)
    Title                                    : Yellow
    Language                                 : Thai
    Default                                  : No
    Forced                                   : No





    Download: cornfile
    http://cornfile.com/v6whz6lcf4hv
    Download: mekafile
    http://www.mekafile.com/dl.php?f=aJe25cc230BO

  2. #2
    Senior Member
    สมัครเมื่อ
    Jul 2012
    โพสต์
    6,353
    Thanks
    0
    Thanked 0 Times in 0 Posts
    ขอบคุณมากจ้า

  3. #3
    Senior Member
    สมัครเมื่อ
    Jun 2014
    โพสต์
    2,019
    Thanks
    0
    Thanked 0 Times in 0 Posts
    ขอบคุณครับ

  4. #4
    Senior Member
    สมัครเมื่อ
    Jun 2014
    โพสต์
    2,019
    Thanks
    0
    Thanked 0 Times in 0 Posts
    ขอบคุณครับ

  5. #5
    Senior Member
    สมัครเมื่อ
    Jun 2012
    โพสต์
    1,267
    Thanks
    0
    Thanked 1 Time in 1 Post
    ขอบคุณครับ

+ ตอบกลับกระทู้

ข้อมูลกระทู้

Users Browsing this Thread

ในขณะนี้มี 1 ท่านดูกระทู้อยู่. (0 สมาชิกและ 1 ผู้เยี่ยมชม)

     

กฎการโพสต์ข้อความ

  • ท่าน ไม่สามารถ ตั้งกระทู้ใหม่ได้
  • ท่าน ไม่สามารถ ตอบกระทู้ได้
  • ท่าน ไม่สามารถ แนบไฟล์ได้
  • ท่าน ไม่สามารถ แก้ไขข้อความโพสต์ได้
  • BB code สถานะ เปิด
  • Smilies สถานะ เปิด
  • [IMG] สถานะ เปิด
  • HTML สถานะ ปิด