+ ตอบกลับกระทู้
สรุปผลการค้นหา 1 ถึง 4 จากทั้งหมด 4
  1. #1
    Administrators รูปส่วนตัว Duckload.us
    สมัครเมื่อ
    Dec 2010
    โพสต์
    108,513
    Thanks
    7
    Thanked 113,463 Times in 52,350 Posts

    Question [เกาหลี]-Extreme Job (2019) ภารกิจทอดไก่ ซุ่มจับเจ้าพ่อ-WEB-DL.VC-1.720p. [Modified]-[Soundtrack บรรยายไทย (แปล)]




    เรื่องย่อ
    เมื่อตำรวจ 5 คนประกอบไปด้วย ผู้กองโก, จาง, หม่า, ยังโฮ และเด็กใหม่อย่าง แจฮุน ต้องไปซุ่มคอยดูเจ้าพ่อยาเสพติดอย่าง ลีมูแบ พวกเขาจึงซื้อกิจการร้านไก่ทอดมาเปิดบังหน้า แต่ทำไปทำมาดันขายดีมากจนพวกเขาเกือบลืมไปว่ามาทำอะไ รกันแน่

    Format : MPEG-4
    Format profile : Base Media / Version 2
    Codec ID : mp42 (isom/iso2/avc1/mp41/mp42)
    File size : 1.01 GiB
    Duration : 1 h 51 min
    Overall bit rate : 1 293 kb/s
    Writing application : IsoMedia File produced by RapidVideo.com

    Video
    ID : 1
    Format : AVC
    Format/Info : Advanced Video Codec
    Format profile : [email protected]
    Format settings : CABAC / 4 Ref Frames
    Format settings, CABAC : Yes
    Format settings, Reference fra : 4 frames
    Codec ID : avc1
    Codec ID/Info : Advanced Video Coding
    Duration : 1 h 51 min
    Bit rate : 1 161 kb/s
    Nominal bit rate : 1 250 kb/s
    Width : 1 280 pixels
    Height : 720 pixels
    Display aspect ratio : 16:9
    Frame rate mode : Constant
    Frame rate : 23.976 (24000/1001) FPS
    Color space : YUV
    Chroma subsampling : 4:2:0
    Bit depth : 8 bits
    Scan type : Progressive
    Bits/(Pixel*Frame) : 0.053
    Stream size : 925 MiB (90%)
    Title : Core Media Video
    Writing library : x264 core 148 r2748 97eaef2
    Encoding settings : cabac=1 / ref=1 / deblock=1:0:0 / analyse=0x3:0x113 / me=hex / subme=2 / psy=1 / psy_rd=1.00:0.00 / mixed_ref=0 / me_range=16 / chroma_me=1 / trellis=0 / 8x8dct=1 / cqm=0 / deadzone=21,11 / fast_pskip=1 / chroma_qp_offset=0 / threads=12 / lookahead_threads=4 / sliced_threads=0 / nr=0 / decimate=1 / interlaced=0 / bluray_compat=0 / constrained_intra=0 / bframes=3 / b_pyramid=2 / b_adapt=1 / b_bias=0 / direct=1 / weightb=1 / open_gop=0 / weightp=1 / keyint=240 / keyint_min=23 / scenecut=40 / intra_refresh=0 / rc_lookahead=10 / rc=abr / mbtree=1 / bitrate=1250 / ratetol=1.0 / qcomp=0.60 / qpmin=20 / qpmax=34 / qpstep=4 / vbv_maxrate=1450 / vbv_bufsize=3000 / nal_hrd=none / filler=0 / ip_ratio=1.40 / aq=1:1.00
    Language : English
    Tagged date : UTC 2019-10-16 16:42:48
    Codec configuration box : avcC

    Audio
    ID : 2
    Format : AAC LC
    Format/Info : Advanced Audio Codec Low Complexity
    Codec ID : mp4a-40-2
    Duration : 1 h 51 min
    Source duration : 1 h 51 min
    Source_Duration_LastFrame : -3 ms
    Bit rate mode : Constant
    Bit rate : 128 kb/s
    Channel(s) : 2 channels
    Channel layout : L R
    Sampling rate : 44.1 kHz
    Frame rate : 43.066 FPS (1024 SPF)
    Compression mode : Lossy
    Stream size : 102 MiB (10%)
    Source stream size : 102 MiB (10%)
    Title : Core Media Audio
    Language : English
    Default : Yes
    Alternate group : 1
    Tagged date : UTC 2019-10-16 16:42:48

    SS












    Download: cornfile
    http://cornfile.com/2desislwtmfc
    Download: mekafile
    http://www.mekafile.com/dl.php?f=5m9511c23y8O

  2. The Following 2 Users Say Thank You to Duckload.us For This Useful Post:

    jackjangri (11-30-2019), roc_dave (11-27-2019)

  3. #2
    Senior Member
    สมัครเมื่อ
    Jun 2014
    โพสต์
    1,337
    Thanks
    0
    Thanked 0 Times in 0 Posts
    ขอบคุณครับ

  4. #3
    Junior Member รูปส่วนตัว srithep444
    สมัครเมื่อ
    Sep 2012
    โพสต์
    7
    Thanks
    0
    Thanked 0 Times in 0 Posts
    อยากดูเรื่องนี้พอดี ขอบคุณครับ

  5. #4
    Member
    สมัครเมื่อ
    Jul 2013
    โพสต์
    85
    Thanks
    0
    Thanked 0 Times in 0 Posts
    ขอบคุณมากๆ อยากดูสุดๆ

+ ตอบกลับกระทู้

ข้อมูลกระทู้

Users Browsing this Thread

ในขณะนี้มี 1 ท่านดูกระทู้อยู่. (0 สมาชิกและ 1 ผู้เยี่ยมชม)

     

กฎการโพสต์ข้อความ

  • ท่าน ไม่สามารถ ตั้งกระทู้ใหม่ได้
  • ท่าน ไม่สามารถ ตอบกระทู้ได้
  • ท่าน ไม่สามารถ แนบไฟล์ได้
  • ท่าน ไม่สามารถ แก้ไขข้อความโพสต์ได้
  • BB code สถานะ เปิด
  • Smilies สถานะ เปิด
  • [IMG] สถานะ เปิด
  • HTML สถานะ ปิด