+ ตอบกลับกระทู้
สรุปผลการค้นหา 1 ถึง 2 จากทั้งหมด 2
  1. #1
    Administrators รูปส่วนตัว Duckload.us
    สมัครเมื่อ
    Dec 2010
    โพสต์
    110,059
    Thanks
    7
    Thanked 115,528 Times in 52,818 Posts

    Question [ฝรั่ง]-((>ใหม่ 4k Remux Full Bitrate<)) Once Upon a Time... in Hollywood (2019) : กาลครั้งหนึ่งใน...ฮอลลีวู้ด [พากย์ไทย 5.1 + เสียงอังกฤษ DTS-HD MA 7.1] [บรรยายไทย + อังกฤษ]-[เสียงไทย + ซับไทย From Blu-Ray MASTER + ซับ PGS คมชัด]



    Once Upon a Time... in Hollywood_(2019)
    เรื่องราวของ นักแสดงหนุ่มตกอับชาวตะวันตกกับสตั้นท์แมนของเขาที่พ ยายามดื้นรนให้ประสบความสำเร็จในธุรกิจหนัง
    อีกทั้งหนังเรื่องนี้ยังเป็นหนังเรื่องแรกของ เควนติน ที่สร้างขึ้นมาโดยอ้างอิงจากเรื่องจริงอีกด้วย
    แบรด พิตต์ , ลีโอนาร์โด ดิคาปริโอ และ มาร์โก้ต์ ร็อบบี้!!!

    Code:
    Format                                   : Matroska
    Format version                           : Version 4 / Version 2
    File size                                : 67.2 GiB
    Duration                                 : 2h 41mn
    Overall bit rate                         : 59.6 Mbps
    
    Video
    ID                                       : 1
    Format                                   : V_MPEGH/ISO/HEVC
    Duration                                 : 2h 41mn
    Bit rate                                 : 55.0 Mbps
    Width                                    : 3 840 pixels
    Height                                   : 2 160 pixels
    Display aspect ratio                     : 16:9
    Frame rate mode                          : Constant
    Frame rate                               : 23.976 fps
    Bits/(Pixel*Frame)                       : 0.276
    Stream size                              : 62.0 GiB (92%)
    Title                                    : [4K Remux]_Once Upon a Time... in Hollywood_(2019)[email protected]
    Language                                 : English
    Default                                  : Yes
    Forced                                   : Yes
    
    Audio #1
    ID                                       : 2
    Format                                   : AC-3
    Format/Info                              : Audio Coding 3
    Mode extension                           : CM (complete main)
    Format settings, Endianness              : Big
    Codec ID                                 : A_AC3
    Duration                                 : 2h 41mn
    Bit rate mode                            : Constant
    Bit rate                                 : 640 Kbps
    Channel(s)                               : 6 channels
    Channel positions                        : Front: L C R, Side: L R, LFE
    Sampling rate                            : 48.0 KHz
    Bit depth                                : 16 bits
    Compression mode                         : Lossy
    Stream size                              : 739 MiB (1%)
    Title                                    : Thai BluRay Master
    Language                                 : Thai
    Default                                  : Yes
    Forced                                   : Yes
    
    Audio #2
    ID                                       : 3
    Format                                   : DTS
    Format/Info                              : Digital Theater Systems
    Codec ID                                 : A_DTS
    Duration                                 : 2h 41mn
    Bit rate mode                            : Constant
    Bit rate                                 : 1 510 Kbps
    Channel(s)                               : 6 channels
    Channel positions                        : Front: L C R, Side: L R, LFE
    Sampling rate                            : 48.0 KHz
    Bit depth                                : 24 bits
    Compression mode                         : Lossy
    Stream size                              : 1.70 GiB (3%)
    Title                                    : English DTS-HD MA 7.1
    Language                                 : English
    Default                                  : No
    Forced                                   : Yes
    
    Audio #3
    ID                                       : 4
    Format                                   : AC-3
    Format/Info                              : Audio Coding 3
    Mode extension                           : CM (complete main)
    Format settings, Endianness              : Big
    Codec ID                                 : A_AC3
    Duration                                 : 2h 41mn
    Bit rate mode                            : Constant
    Bit rate                                 : 640 Kbps
    Channel(s)                               : 6 channels
    Channel positions                        : Front: L C R, Side: L R, LFE
    Sampling rate                            : 48.0 KHz
    Bit depth                                : 16 bits
    Compression mode                         : Lossy
    Stream size                              : 739 MiB (1%)
    Title                                    : English AC3 5.1
    Language                                 : English
    Default                                  : No
    Forced                                   : Yes
    
    Audio #4
    ID                                       : 5
    Format                                   : AC-3
    Format/Info                              : Audio Coding 3
    Mode extension                           : CM (complete main)
    Format settings, Endianness              : Big
    Codec ID                                 : A_AC3
    Duration                                 : 2h 41mn
    Bit rate mode                            : Constant
    Bit rate                                 : 640 Kbps
    Channel(s)                               : 6 channels
    Channel positions                        : Front: L C R, Side: L R, LFE
    Sampling rate                            : 48.0 KHz
    Bit depth                                : 16 bits
    Compression mode                         : Lossy
    Stream size                              : 739 MiB (1%)
    Title                                    : English AC3 5.1
    Language                                 : English
    Default                                  : No
    Forced                                   : Yes
    
    Text #1
    ID                                       : 6
    Format                                   : VobSub
    Codec ID                                 : S_VOBSUB
    Codec ID/Info                            : The same subtitle format used on DVDs
    Title                                    : Thai 1080p BluRay Master
    Language                                 : Thai
    Default                                  : Yes
    Forced                                   : Yes
    
    Text #2
    ID                                       : 7
    Format                                   : VobSub
    Codec ID                                 : S_VOBSUB
    Codec ID/Info                            : The same subtitle format used on DVDs
    Title                                    : Thai 1080p Yellow
    Language                                 : Thai
    Default                                  : No
    Forced                                   : Yes
    
    Text #3
    ID                                       : 8
    Format                                   : PGS
    Codec ID                                 : S_HDMV/PGS
    Codec ID/Info                            : The same subtitle format used on BDs/HD-DVDs
    Title                                    : Thai PGS BluRay Master
    Language                                 : Thai
    Default                                  : No
    Forced                                   : Yes
    
    Text #4
    ID                                       : 9
    Format                                   : PGS
    Codec ID                                 : S_HDMV/PGS
    Codec ID/Info                            : The same subtitle format used on BDs/HD-DVDs
    Title                                    : Thai PGS BluRay Yellow
    Language                                 : Thai
    Default                                  : No
    Forced                                   : Yes
    
    Text #5
    ID                                       : 10
    Format                                   : PGS
    Codec ID                                 : S_HDMV/PGS
    Codec ID/Info                            : The same subtitle format used on BDs/HD-DVDs
    Title                                    : English PGS BluRay Master
    Language                                 : English
    Default                                  : No
    Forced                                   : Yes
    
    Text #6
    ID                                       : 11
    Format                                   : PGS
    Codec ID                                 : S_HDMV/PGS
    Codec ID/Info                            : The same subtitle format used on BDs/HD-DVDs
    Title                                    : English PGS BluRay Master
    Language                                 : English
    Default                                  : No
    Forced                                   : Yes
    
    Text #7
    ID                                       : 12
    Format                                   : PGS
    Codec ID                                 : S_HDMV/PGS
    Codec ID/Info                            : The same subtitle format used on BDs/HD-DVDs
    Title                                    : English PGS BluRay Master
    Language                                 : English
    Default                                  : No
    Forced                                   : Yes
    
    Text #8
    ID                                       : 13
    Format                                   : PGS
    Codec ID                                 : S_HDMV/PGS
    Codec ID/Info                            : The same subtitle format used on BDs/HD-DVDs
    Title                                    : English PGS BluRay Master
    Language                                 : English
    Default                                  : No
    Forced                                   : Yes
    
    Menu
    00:00:00.000                             : en:00:00:00.000
    00:04:49.414                             : en:00:04:49.414
    00:13:45.199                             : en:00:13:45.199
    00:18:29.150                             : en:00:18:29.150
    00:22:00.319                             : en:00:22:00.319
    00:25:59.349                             : en:00:25:59.349
    00:28:41.094                             : en:00:28:41.094
    00:33:45.106                             : en:00:33:45.106
    00:40:19.334                             : en:00:40:19.334
    00:49:59.455                             : en:00:49:59.455
    00:51:48.689                             : en:00:51:48.689
    00:59:52.255                             : en:00:59:52.255
    01:02:32.874                             : en:01:02:32.874
    01:04:28.615                             : en:01:04:28.615
    01:09:16.736                             : en:01:09:16.736
    01:17:40.781                             : en:01:17:40.781
    01:20:25.779                             : en:01:20:25.779
    01:26:28.433                             : en:01:26:28.433
    01:32:54.444                             : en:01:32:54.444
    01:39:58.492                             : en:01:39:58.492
    01:47:55.219                             : en:01:47:55.219
    01:53:00.232                             : en:01:53:00.232
    01:58:09.541                             : en:01:58:09.541
    02:06:23.993                             : en:02:06:23.993
    02:11:22.958                             : en:02:11:22.958
    02:15:50.100                             : en:02:15:50.100
    02:21:30.190                             : en:02:21:30.190
    02:29:50.732                             : en:02:29:50.732
    02:36:28.254                             : en:02:36:28.254
    02:38:51.230                             : en:02:38:51.230






    Download: cornfile
    http://cornfile.com/bfd9q2xy24fl
    Download: mekafile
    http://www.mekafile.com/dl.php?f=kha7f3c2ncyT

  2. #2
    Senior Member
    สมัครเมื่อ
    Jun 2014
    โพสต์
    2,209
    Thanks
    0
    Thanked 0 Times in 0 Posts
    ขอบคุณครับ

+ ตอบกลับกระทู้

ข้อมูลกระทู้

Users Browsing this Thread

ในขณะนี้มี 1 ท่านดูกระทู้อยู่. (0 สมาชิกและ 1 ผู้เยี่ยมชม)

     

กฎการโพสต์ข้อความ

  • ท่าน ไม่สามารถ ตั้งกระทู้ใหม่ได้
  • ท่าน ไม่สามารถ ตอบกระทู้ได้
  • ท่าน ไม่สามารถ แนบไฟล์ได้
  • ท่าน ไม่สามารถ แก้ไขข้อความโพสต์ได้
  • BB code สถานะ เปิด
  • Smilies สถานะ เปิด
  • [IMG] สถานะ เปิด
  • HTML สถานะ ปิด