+ ตอบกลับกระทู้
สรุปผลการค้นหา 1 ถึง 7 จากทั้งหมด 7
  1. #1
    Administrators รูปส่วนตัว Duckload.us
    สมัครเมื่อ
    Dec 2010
    โพสต์
    116,849
    Thanks
    7
    Thanked 123,153 Times in 55,207 Posts

    Question (จีน.ใหม่.พากย์ไทยมาสเตอร์)-THE BRINK (2017) ฉะโคตรคน ล่าโคตรทอง-[BluRay.1080p][ Sound:Chi AC3 5.1/Thai AC3 5.1:MASTER][SUB:Eng.PGS]



    สารวัตรตำรวจ ตุง (จางจิน) กำลังปฏิบัติภารกิจเพื่อปราบปรามแผนการลักลอบค้าทองค ำเถื่อนของ Shing (Shawn Yue) แต่ยังไม่สามารถจับกุมคนร้ายได้ เขาค้นพบการมีส่วนร่วมของชิงกับแบล็กกี้ (ยาสุกิคิราตะ) ซึ่งเป็นหัวหน้าแก๊งซึ่งหลบซ่อนตัวอยู่บนเรือสำราญที ่มีบ่อนคาสิโนในน่านน้ำทะเลสากล ชิงมีส่วนเกี่ยวข้องในการต่อสู้แย่งชิงอำนาจภายในวงก ารลักลอบขนของและทองคำเถื่อน Shing ต้องการที่จะแย่งชิงส่วนแบ่งของการลักลอบขนทองคำและช ิงเอาทองคำนั้นมา


    Format : Matroska
    Format version : Version 4
    File size : 4.01 GiB
    Duration : 1 h 39 min
    Overall bit rate : 5 786 kb/s
    Movie name : The.Brink.2017.CHINESE.1080p.BluRay._©GOLD CUP™
    Encoded date : UTC 2019-12-04 06:51:47
    Writing application : mkvmerge v40.0.0 ('Old Town Road + Pony') 64-bit
    Writing library : libebml v1.3.9 + libmatroska v1.5.2
    Cover : Yes
    Attachments : cover.jpg

    Video
    ID : 1
    Format : AVC
    Format/Info : Advanced Video Codec
    Format profile : [email protected]
    Format settings : CABAC / 1 Ref Frames
    Format settings, CABAC : Yes
    Format settings, Reference frames : 1 frame
    Format settings, GOP : M=1, N=25
    Codec ID : V_MPEG4/ISO/AVC
    Duration : 1 h 39 min
    Bit rate mode : Constant
    Bit rate : 4 500 kb/s
    Width : 1 920 pixels
    Height : 816 pixels
    Display aspect ratio : 2.35:1
    Frame rate mode : Constant
    Frame rate : 29.970 (30000/1001) FPS
    Color space : YUV
    Chroma subsampling : 4:2:0
    Bit depth : 8 bits
    Scan type : Progressive
    Bits/(Pixel*Frame) : 0.096
    Stream size : 3.12 GiB (78%)
    Title : The.Brink.2017.CHINESE.1080p.BluRay._©GOLD CUP™
    Language : Chinese
    Default : Yes
    Forced : No

    Audio #1
    ID : 2
    Format : AC-3
    Format/Info : Audio Coding 3
    Commercial name : Dolby Digital
    Codec ID : A_AC3
    Duration : 1 h 39 min
    Bit rate mode : Constant
    Bit rate : 640 kb/s
    Channel(s) : 6 channels
    Channel layout : L R C LFE Ls Rs
    Sampling rate : 44.1 kHz
    Frame rate : 28.711 FPS (1536 SPF)
    Bit depth : 16 bits
    Compression mode : Lossy
    Stream size : 454 MiB (11%)
    Title : 5.1 AC3 TH 640k 454m_©GOLD CUP™
    Language : Thai
    Service kind : Complete Main
    Default : Yes
    Forced : No

    Audio #2
    ID : 3
    Format : AC-3
    Format/Info : Audio Coding 3
    Commercial name : Dolby Digital
    Codec ID : A_AC3
    Duration : 1 h 39 min
    Bit rate mode : Constant
    Bit rate : 640 kb/s
    Channel(s) : 6 channels
    Channel layout : L R C LFE Ls Rs
    Sampling rate : 44.1 kHz
    Frame rate : 28.711 FPS (1536 SPF)
    Bit depth : 16 bits
    Compression mode : Lossy
    Stream size : 454 MiB (11%)
    Title : 5.1 AC3 CH 640k 454m_©GOLD CUP™
    Language : Chinese
    Service kind : Complete Main
    Default : No
    Forced : No

    Text
    ID : 4
    Format : PGS
    Muxing mode : zlib
    Codec ID : S_HDMV/PGS
    Codec ID/Info : Picture based subtitle format used on BDs/HD-DVDs
    Duration : 1 h 32 min
    Bit rate : 11.3 kb/s
    Count of elements : 1116
    Stream size : 7.46 MiB (0%)
    Title : The.Brink.2017.EN.PNG.yellow.100-80-7_©GOLD CUP™
    Language : English
    Default : Yes
    Forced : No





    Download: cornfile
    http://cornfile.com/ewxiflwdo64y
    Download: mekafile
    http://www.mekafile.com/dl.php?f=ry2eb3c2rh2f

  2. The Following 3 Users Say Thank You to Duckload.us For This Useful Post:

    apichartdear (12-07-2019), bigbang06 (12-07-2019), Jodz14 (12-24-2019)

  3. #2
    Senior Member
    สมัครเมื่อ
    Dec 2013
    โพสต์
    2,147
    Thanks
    4,071
    Thanked 0 Times in 0 Posts
    ขอบคุณครับ...

  4. #3
    Senior Member
    สมัครเมื่อ
    Jul 2014
    โพสต์
    185
    Thanks
    5
    Thanked 0 Times in 0 Posts
    ขอบคุณครับ

  5. #4
    Senior Member
    สมัครเมื่อ
    Jun 2014
    โพสต์
    4,331
    Thanks
    0
    Thanked 0 Times in 0 Posts
    ขอบคุณครับ

  6. #5
    Senior Member
    สมัครเมื่อ
    Jul 2013
    โพสต์
    863
    Thanks
    0
    Thanked 0 Times in 0 Posts
    ขอบคุณครับผม

  7. #6
    Senior Member
    สมัครเมื่อ
    Dec 2013
    โพสต์
    298
    Thanks
    216
    Thanked 0 Times in 0 Posts
    ขอบคุณครับ

  8. #7
    Senior Member
    สมัครเมื่อ
    Jun 2012
    โพสต์
    1,343
    Thanks
    0
    Thanked 1 Time in 1 Post
    ขอบคุณครับ

+ ตอบกลับกระทู้

ข้อมูลกระทู้

Users Browsing this Thread

ในขณะนี้มี 1 ท่านดูกระทู้อยู่. (0 สมาชิกและ 1 ผู้เยี่ยมชม)

     

กฎการโพสต์ข้อความ

  • ท่าน ไม่สามารถ ตั้งกระทู้ใหม่ได้
  • ท่าน ไม่สามารถ ตอบกระทู้ได้
  • ท่าน ไม่สามารถ แนบไฟล์ได้
  • ท่าน ไม่สามารถ แก้ไขข้อความโพสต์ได้
  • BB code สถานะ เปิด
  • Smilies สถานะ เปิด
  • [IMG] สถานะ เปิด
  • HTML สถานะ ปิด