+ ตอบกลับกระทู้
สรุปผลการค้นหา 1 ถึง 1 จากทั้งหมด 1
  1. #1
    Administrators รูปส่วนตัว Duckload.us
    สมัครเมื่อ
    Dec 2010
    โพสต์
    112,881
    Thanks
    7
    Thanked 118,759 Times in 53,714 Posts

    Lightbulb [อ่านก่อนโหลดไฟล์มีปัญหา ซับหาย]--((>ใหม่<))•[Netflix]• The Lies Within [2019] เกมโกหก •Season 1 Complete[ เสียงเกาหลี]-[บรรยายไทย + อังกฤษ]-[ซับไทย MASTER From Netflix]-[Soundtrack บรรยายไทย]-WEB-DL.H.264.1080p



    เรื่องย่อ : ซีรีส์เรื่องนี้บอกเล่าเรื่องราวของ คิมซอฮี (รับบทโดย ยูอินยอง) หญิงสาวซึ่งสามีของเธอหายตัวไปหลังจากการเสียชีวิตอย ่างกระทันหันของพ่อของเธอเอง เธอได้เข้าทำงานในรัฐสภาและร่วมมือกันกับ โจแทชิก (รับบทโดย อีมินกิ) ตำรวจนักสืบหนุ่มเพื่อออกตามหาความจริงที่เกิดขึ้น โดยทั้ง 2 ตัวละครหลักจะทำงานร่วมกันฝ่าฟันไปกับ ความเงียบ และ คำโกหก ของหลากหลายคนที่พยายามจะปกป้องสิ่งที่ตัวเองต้องการ ซ่อนไว้

    Code:
    Format                      : Matroska
    Format version              : Version 4 / Version 2
    File size                   : 2.48 GiB
    Duration                    : 59 min 57 s
    Overall bit rate mode       : Variable
    Overall bit rate            : 5 921 kb/s
    
    Video
    ID                          : 10
    Format                      : AVC
    Format/Info                 : Advanced Video Codec
    Format profile              : [email protected]
    Format settings, CABAC      : Yes
    Format settings, ReFrames   : 3 frames
    Codec ID                    : V_MPEG4/ISO/AVC
    Duration                    : 59 min 57 s
    Bit rate mode               : Variable
    Bit rate                    : 5 800 kb/s
    Maximum bit rate            : 8 700 kb/s
    Width                       : 1 920 pixels
    Height                      : 1 080 pixels
    Display aspect ratio        : 16:9
    Frame rate mode             : Constant
    Frame rate                  : 23.976 (24000/1001) FPS
    Color space                 : YUV
    Chroma subsampling          : 4:2:0
    Bit depth                   : 8 bits
    Scan type                   : Progressive
    Bits/(Pixel*Frame)          : 0.117
    Stream size                 : 2.42 GiB (98%)
    Writing library             : x264 core 148 r2715 7e75228
    Encoding settings           : cabac=1 / ref=3 / deblock=1:0:0 / analyse=0x1:0x111 / me=umh / subme=10 / psy=1 / psy_rd=1.00:0.00 / mixed_ref=1 / me_range=24 / chroma_me=1 / trellis=2 / 8x8dct=0 / cqm=0 / deadzone=21,11 / fast_pskip=1 / chroma_qp_offset=-2 / threads=6 / lookahead_threads=1 / sliced_threads=0 / nr=0 / decimate=1 / interlaced=0 / bluray_compat=0 / stitchable=1 / constrained_intra=0 / bframes=2 / b_pyramid=0 / b_adapt=2 / b_bias=0 / direct=3 / weightb=1 / open_gop=0 / weightp=2 / keyint=250 / keyint_min=23 / scenecut=0 / intra_refresh=0 / rc_lookahead=48 / rc=2pass / mbtree=1 / bitrate=5800 / ratetol=1.0 / qcomp=0.50 / qpmin=6 / qpmax=51 / qpstep=4 / cplxblur=20.0 / qblur=0.5 / vbv_maxrate=8700 / vbv_bufsize=11600 / nal_hrd=vbr / filler=0 / ip_ratio=1.40 / aq=1:1.00
    Default                     : Yes
    Forced                      : No
    
    Audio
    ID                          : 1
    Format                      : E-AC-3
    Format/Info                 : Enhanced Audio Coding 3
    Format settings, Endianness : Big
    Codec ID                    : A_EAC3
    Duration                    : 59 min 57 s
    Bit rate mode               : Constant
    Bit rate                    : 128 kb/s
    Channel(s)                  : 2 channels
    Channel positions           : Front: L R
    Sampling rate               : 48.0 kHz
    Frame rate                  : 187.500 FPS (256 spf)
    Compression mode            : Lossy
    Stream size                 : 54.9 MiB (2%)
    Service kind                : Complete Main
    Default                     : Yes
    Forced                      : No
    
    Text #1
    ID                          : 2
    Format                      : UTF-8
    Codec ID                    : S_TEXT/UTF8
    Codec ID/Info               : UTF-8 Plain Text
    Duration                    : 59 min 38 s
    Bit rate                    : 71 b/s
    Count of elements           : 942
    Stream size                 : 31.2 KiB (0%)
    Default                     : No
    Forced                      : No
    
    Text #2
    ID                          : 3
    Format                      : UTF-8
    Codec ID                    : S_TEXT/UTF8
    Codec ID/Info               : UTF-8 Plain Text
    Duration                    : 59 min 41 s
    Bit rate                    : 116 b/s
    Count of elements           : 1128
    Stream size                 : 50.8 KiB (0%)
    Default                     : No
    Forced                      : No
    
    Text #3
    ID                          : 4
    Format                      : UTF-8
    Codec ID                    : S_TEXT/UTF8
    Codec ID/Info               : UTF-8 Plain Text
    Duration                    : 59 min 38 s
    Bit rate                    : 170 b/s
    Count of elements           : 939
    Stream size                 : 74.5 KiB (0%)
    Default                     : No
    Forced                      : No
    
    Text #4
    ID                          : 5
    Format                      : UTF-8
    Codec ID                    : S_TEXT/UTF8
    Codec ID/Info               : UTF-8 Plain Text
    Duration                    : 59 min 38 s
    Bit rate                    : 96 b/s
    Count of elements           : 928
    Stream size                 : 42.3 KiB (0%)
    Default                     : No
    Forced                      : No
    
    Text #5
    ID                          : 6
    Format                      : UTF-8
    Codec ID                    : S_TEXT/UTF8
    Codec ID/Info               : UTF-8 Plain Text
    Duration                    : 59 min 38 s
    Bit rate                    : 70 b/s
    Count of elements           : 939
    Stream size                 : 30.9 KiB (0%)
    Language                    : Chinese
    Default                     : Yes
    Forced                      : No
    
    Text #6
    ID                          : 7
    Format                      : UTF-8
    Codec ID                    : S_TEXT/UTF8
    Codec ID/Info               : UTF-8 Plain Text
    Duration                    : 59 min 10 s
    Bit rate                    : 69 b/s
    Count of elements           : 933
    Stream size                 : 30.1 KiB (0%)
    Default                     : No
    Forced                      : No
    
    Text #7
    ID                          : 8
    Format                      : UTF-8
    Codec ID                    : S_TEXT/UTF8
    Codec ID/Info               : UTF-8 Plain Text
    Duration                    : 3 s 379 ms
    Bit rate                    : 87 b/s
    Count of elements           : 1
    Stream size                 : 37.0 Bytes (0%)
    Default                     : No
    Forced                      : No
    
    Text #8
    ID                          : 9
    Format                      : UTF-8
    Codec ID                    : S_TEXT/UTF8
    Codec ID/Info               : UTF-8 Plain Text
    Duration                    : 59 min 42 s
    Bit rate                    : 62 b/s
    Count of elements           : 939
    Stream size                 : 27.2 KiB (0%)
    Default                     : No
    Forced                      : No
    
    Text #9
    ID                          : 11
    Format                      : UTF-8
    Codec ID                    : S_TEXT/UTF8
    Codec ID/Info               : UTF-8 Plain Text
    Duration                    : 59 min 10 s
    Bit rate                    : 68 b/s
    Count of elements           : 933
    Stream size                 : 29.6 KiB (0%)
    Title                       : en
    Language                    : English
    Default                     : No
    Forced                      : No
    
    Text #10
    ID                          : 12
    Format                      : UTF-8
    Codec ID                    : S_TEXT/UTF8
    Codec ID/Info               : UTF-8 Plain Text
    Duration                    : 59 min 42 s
    Bit rate                    : 60 b/s
    Count of elements           : 939
    Stream size                 : 26.7 KiB (0%)
    Title                       : id
    Language                    : Indonesian
    Default                     : No
    Forced                      : No










    1
    http://www.filecondo.com/dl.php?f=6d32931IDfsU
    2
    http://www.filecondo.com/dl.php?f=heb04f1IDftS
    **[อ่านก่อนโหลดไฟล์มีปัญหา ซับหาย]***
    3
    http://www.filecondo.com/dl.php?f=aa63c81IDfuR
    4
    http://www.filecondo.com/dl.php?f=r21ed71IDfvO
    5
    http://www.filecondo.com/dl.php?f=M233a91IDfwM
    6
    http://www.filecondo.com/dl.php?f=b0f0ac1IDfxK
    7
    http://www.filecondo.com/dl.php?f=Tee77c1IDfyJ
    8
    http://www.filecondo.com/dl.php?f=O4ae6c1IDfzH
    9
    http://www.filecondo.com/dl.php?f=f2f74e1IDfAE
    10
    http://www.filecondo.com/dl.php?f=Y087ba1IDfBC
    11
    http://www.filecondo.com/dl.php?f=vd803e1IDfCA
    12
    http://www.filecondo.com/dl.php?f=z978b91IDfDz
    13
    http://www.filecondo.com/dl.php?f=F8580d1IDfEx
    14
    http://www.filecondo.com/dl.php?f=S6b3461IDfFv
    15
    http://www.filecondo.com/dl.php?f=8718501IDfGt
    16
    http://www.filecondo.com/dl.php?f=B2314d1IDfHr
    **[อ่านก่อนโหลดไฟล์มีปัญหา ซับหาย]**

  2. The Following User Says Thank You to Duckload.us For This Useful Post:

    kappa (02-20-2020)

+ ตอบกลับกระทู้

ข้อมูลกระทู้

Users Browsing this Thread

ในขณะนี้มี 1 ท่านดูกระทู้อยู่. (0 สมาชิกและ 1 ผู้เยี่ยมชม)

     

กฎการโพสต์ข้อความ

  • ท่าน ไม่สามารถ ตั้งกระทู้ใหม่ได้
  • ท่าน ไม่สามารถ ตอบกระทู้ได้
  • ท่าน ไม่สามารถ แนบไฟล์ได้
  • ท่าน ไม่สามารถ แก้ไขข้อความโพสต์ได้
  • BB code สถานะ เปิด
  • Smilies สถานะ เปิด
  • [IMG] สถานะ เปิด
  • HTML สถานะ ปิด