+ ตอบกลับกระทู้
สรุปผลการค้นหา 1 ถึง 1 จากทั้งหมด 1
  1. #1
    Administrators รูปส่วนตัว Duckload.us
    สมัครเมื่อ
    Dec 2010
    โพสต์
    118,671
    Thanks
    7
    Thanked 124,665 Times in 55,804 Posts

    Question (ญี่ปุ่น.ใหม่.พากย์ไทยมาสเตอร์)-KINGDOM KINGUDAMU (2019)-[720p][ Sound:Jpn AC3 5.1/Thai AC3 5.1:MASTER][HARD SUB:Turkish]



    ในยุครณรัฐแผ่นดินจีนแตกออกเป็น 7 แว่นแคว้น ณ รัฐฉิน เกิดสงครามภายในเมื่อ อิเซอิ กษัตริย์หนุ่มถูกสถาปนาขึ้น หากแต่พระอนุชาต่างมารดานามเซเกียวไม่เห็นด้วยและก่อ การกบฏ จนอิเซอิต้องเร่ร่อนออกนอกเมืองกับพลทหารเพียงเล็กน้ อย ในตอนนั้นเขาได้พบกับทาสหนุ่มนาม ชิน ผู้มีความฝันร่วมกับเพื่อนรักนาม ฮิโยว ที่จะไต่เต้าเป็นแม่ทัพใหญ่เพื่อปลดสถานะทาสชั่วชีวิ ตของพวกเขา โชคชะตาระหว่างกษัตริย์หนุ่มกับทาสชาวบ้านจึงต้องมาร ่วมทางกันเพื่อกลับไปกู้บัลลังก์กลับคืนมา และนี่คือเรื่องราวก่อนอิเซอิจะได้ถูกจารึกในประวัติ ศาสตร์ในฐานะปฐมจักรพรรดิ์คนแรกแห่งจีน (จิ๋นซีฮ่องเต้)

    Format : Matroska
    Format version : Version 4
    File size : 3.58 GiB
    Duration : 2 h 13 min
    Overall bit rate mode : Constant
    Overall bit rate : 3 828 kb/s
    Video
    ID : 1
    Format : AVC
    Format/Info : Advanced Video Codec
    Format profile : [email protected]
    Format settings : CABAC / 1 Ref Frames
    Format settings, CABAC : Yes
    Format settings, Reference : 1 frame
    Format settings, GOP : M=1, N=25
    Codec ID : V_MPEG4/ISO/AVC
    Duration : 2 h 13 min
    Bit rate mode : Constant
    Bit rate : 3 253 kb/s
    Width : 1 280 pixels
    Height : 540 pixels
    Display aspect ratio : 2.40:1
    Frame rate mode : Constant
    Frame rate : 29.970 (30000/1001) FPS
    Color space : YUV
    Chroma subsampling : 4:2:0
    Bit depth : 8 bits
    Scan type : Progressive
    Bits/(Pixel*Frame) : 0.157
    Stream size : 3.04 GiB (85%)
    Title : KINGDOM KINGUDAMU (2019) 720p._©GOLD CUP™
    Language : Japanese
    Default : Yes
    Forced : No

    Audio #1
    ID : 2
    Format : AC-3
    Format/Info : Audio Coding 3
    Commercial name : Dolby Digital
    Codec ID : A_AC3
    Duration : 2 h 13 min
    Bit rate mode : Constant
    Bit rate : 256 kb/s
    Channel(s) : 6 channels
    Channel layout : L R C LFE Ls Rs
    Sampling rate : 44.1 kHz
    Frame rate : 28.711 FPS (1536 SPF)
    Compression mode : Lossy
    Stream size : 245 MiB (7%)
    Title : 5.1 AC3 TH 256k 245m_©GOLD CUP™
    Language : Thai
    Service kind : Complete Main
    Default : Yes
    Forced : No

    Audio #2
    ID : 3
    Format : AC-3
    Format/Info : Audio Coding 3
    Commercial name : Dolby Digital
    Codec ID : A_AC3
    Duration : 2 h 13 min
    Bit rate mode : Constant
    Bit rate : 320 kb/s
    Channel(s) : 6 channels
    Channel layout : L R C LFE Ls Rs
    Sampling rate : 44.1 kHz
    Frame rate : 28.711 FPS (1536 SPF)
    Compression mode : Lossy
    Stream size : 307 MiB (8%)
    Title : 5.1 AC3 Jpn 320k 306m_©GOLD CUP™
    Language : Japanese
    Service kind : Complete Main
    Default : No
    Forced : No





    Download: cornfile
    http://cornfile.com/0dj0m8guo9ja
    Download: mekafile
    http://www.filecondo.com/dl.php?f=XP597dc2vb2K

  2. The Following 2 Users Say Thank You to Duckload.us For This Useful Post:

    apichartdear (12-08-2019), zhad01 (12-08-2019)

+ ตอบกลับกระทู้

ข้อมูลกระทู้

Users Browsing this Thread

ในขณะนี้มี 1 ท่านดูกระทู้อยู่. (0 สมาชิกและ 1 ผู้เยี่ยมชม)

     

กฎการโพสต์ข้อความ

  • ท่าน ไม่สามารถ ตั้งกระทู้ใหม่ได้
  • ท่าน ไม่สามารถ ตอบกระทู้ได้
  • ท่าน ไม่สามารถ แนบไฟล์ได้
  • ท่าน ไม่สามารถ แก้ไขข้อความโพสต์ได้
  • BB code สถานะ เปิด
  • Smilies สถานะ เปิด
  • [IMG] สถานะ เปิด
  • HTML สถานะ ปิด