+ ตอบกลับกระทู้
สรุปผลการค้นหา 1 ถึง 2 จากทั้งหมด 2
  1. #1
    Administrators รูปส่วนตัว Duckload.us
    สมัครเมื่อ
    Dec 2010
    โพสต์
    109,956
    Thanks
    7
    Thanked 115,371 Times in 52,779 Posts

    Question (ฝรั่ง.ภาพ มาสเตอร์+พากย์ไทยโรง)-The Angry Birds Movie 2 (2019) แอ็งกรี เบิร์ดส เดอะ มูฟวี่ 2 -[BluRay.1080p][Sound:Eng AC3 5.1+Thai Rong AC3 2.0][SUB:Eng.PGS]



    เรื่องราวของกลุ่มนกที่ต้องรับมือกับภัยคุกคามครั้งใ หม่ที่ทำให้ทั้งเกาะนกและเกาะหมูต้องตกอยู่ในอันตราย หลังจากใน Angry Birds (2016) พวกเขาสามารถกำจัดการรุกรานของหมูสีเขียวได้สำเร็จมา แล้ว ครั้งนี้ เรด ฮีโร่ในท้องถิ่นของเกาะพบว่าตัวเองกำลังต่อสู้กับการ ต่อสู้ของทั้งเกาะนกและเกาะหมูกำลังถูกคุกคามจากน้ำแ ข็งขนาดยักษ์ที่มาจากเกาะอินทรีที่ปกคลุมด้วยน้ำแข็ง ของซีตาและกำลังโหมกระหน่ำมาสู่ทั้งสองเกาะเพื่อความ ปลอดภัยของทั้งสองเรดและกษัตริย์ลีโอนาร์ดจะเห็นด้วย กับการสู้รบที่ยากลำบากต้องร่วมมือกับทีมเม่นอันยิ่ง ใหญ่ของลีโอนาร์ดเพื่อต่อต้านแผนการอันกล้าหาญของซีต าเมกาโนมาเนียสในการครอบครองโลก

    Format : Matroska
    Format version : Version 4
    File size : 3.30 GiB
    Duration : 1 h 36 min
    Overall bit rate : 4 878 kb/s
    Movie name : The.Angry.Birds.Movie.2.2019.1080p.BluRay.x264-Thr_©GOLD CUP™

    Video
    ID : 1
    Format : AVC
    Format/Info : Advanced Video Codec
    Format profile : [email protected]
    Format settings : CABAC / 1 Ref Frames
    Format settings, CABAC : Yes
    Format settings, Reference : 1 frame
    Format settings, GOP : M=1, N=25
    Codec ID : V_MPEG4/ISO/AVC
    Duration : 1 h 36 min
    Bit rate mode : Constant
    Bit rate : 4 000 kb/s
    Width : 1 920 pixels
    Height : 1 040 pixels
    Display aspect ratio : 1.85:1
    Frame rate mode : Constant
    Frame rate : 29.970 (30000/1001) FPS
    Color space : YUV
    Chroma subsampling : 4:2:0
    Bit depth : 8 bits
    Scan type : Progressive
    Bits/(Pixel*Frame) : 0.067
    Stream size : 2.70 GiB (82%)
    Title : The.Angry.Birds.Movie.2.2019.1080p.BluRay.x264-Thr_©GOLD CUP™
    Language : English
    Default : Yes
    Forced : No

    Audio #1
    ID : 2
    Format : AC-3
    Format/Info : Audio Coding 3
    Commercial name : Dolby Digital
    Codec ID : A_AC3
    Duration : 1 h 36 min
    Bit rate mode : Constant
    Bit rate : 192 kb/s
    Channel(s) : 2 channels
    Channel layout : L R
    Sampling rate : 44.1 kHz
    Frame rate : 28.711 FPS (1536 SPF)
    Compression mode : Lossy
    Stream size : 133 MiB (4%)
    Title : 2.0 AC3 THR 192k 132m_©GOLD CUP™
    Language : Thai
    Service kind : Complete Main
    Default : Yes
    Forced : No

    Audio #2
    ID : 3
    Format : AC-3
    Format/Info : Audio Coding 3
    Commercial name : Dolby Digital
    Codec ID : A_AC3
    Duration : 1 h 36 min
    Bit rate mode : Constant
    Bit rate : 640 kb/s
    Channel(s) : 6 channels
    Channel layout : L R C LFE Ls Rs
    Sampling rate : 44.1 kHz
    Frame rate : 28.711 FPS (1536 SPF)
    Compression mode : Lossy
    Stream size : 443 MiB (13%)
    Title : 5.1 AC3 En 640k 443m_©GOLD CUP™
    Language : English
    Service kind : Complete Main
    Default : No
    Forced : No

    Text #1
    ID : 4
    Format : PGS
    Muxing mode : zlib
    Codec ID : S_HDMV/PGS
    Codec ID/Info : Picture based subtitle format used on BDs/HD-DVDs
    Duration : 1 h 34 min
    Bit rate : 37.4 kb/s
    Count of elements : 3586
    Stream size : 25.3 MiB (1%)
    Title : EN.PGS.yellow.90-70-10_©GOLD CUP™
    Language : English
    Default : Yes
    Forced : No

    Text #2
    ID : 5
    Format : PGS
    Muxing mode : zlib
    Codec ID : S_HDMV/PGS
    Codec ID/Info : Picture based subtitle format used on BDs/HD-DVDs
    Duration : 1 h 34 min
    Bit rate : 36.9 kb/s
    Count of elements : 3044
    Stream size : 24.9 MiB (1%)
    Title : EN.SDG.PGS.pink.90-70-10_©GOLD CUP™
    Language : English
    Default : No
    Forced : No





    Download: cornfile
    http://cornfile.com/j7jr95en7imq
    Download: mekafile
    http://www.mekafile.com/dl.php?f=UWee06c2HANv

  2. The Following User Says Thank You to Duckload.us For This Useful Post:

    Tellmon (12-16-2019)

  3. #2
    Senior Member
    สมัครเมื่อ
    Jun 2014
    โพสต์
    2,034
    Thanks
    0
    Thanked 0 Times in 0 Posts
    ขอบคุณครับ

+ ตอบกลับกระทู้

ข้อมูลกระทู้

Users Browsing this Thread

ในขณะนี้มี 1 ท่านดูกระทู้อยู่. (0 สมาชิกและ 1 ผู้เยี่ยมชม)

     

กฎการโพสต์ข้อความ

  • ท่าน ไม่สามารถ ตั้งกระทู้ใหม่ได้
  • ท่าน ไม่สามารถ ตอบกระทู้ได้
  • ท่าน ไม่สามารถ แนบไฟล์ได้
  • ท่าน ไม่สามารถ แก้ไขข้อความโพสต์ได้
  • BB code สถานะ เปิด
  • Smilies สถานะ เปิด
  • [IMG] สถานะ เปิด
  • HTML สถานะ ปิด