+ ตอบกลับกระทู้
สรุปผลการค้นหา 1 ถึง 3 จากทั้งหมด 3
  1. #1
    Administrators รูปส่วนตัว Duckload.us
    สมัครเมื่อ
    Dec 2010
    โพสต์
    120,695
    Thanks
    7
    Thanked 126,112 Times in 56,354 Posts

    Question [ฝรั่ง]-Marriage Story (2019) แมริเอจ สตอรี่ - [Soundtrack บรรยายไทย+อังกฤษ] ภาพยนตร์จาก NETFLIX Internal.HDR.1080p.web.h265



    โนอาห์ บอมบาค ผู้สร้างหนังที่เคยเข้าชิงออสการ์แสดงฝีมือกำกับผลงา นที่ถ่ายทอดเรื่องราวอันลึกซึ้งและน่าเห็นใจของคู่แต ่งงานที่ต้องแยกทางและการใช้ชีวิตร่วมกันเป็นครอบครั ว

    ภาพยนตร์เรื่องนี้แสดงให้เห็นถึงความหลักแหลมและความ เห็นใจกันเมื่อต้องเลิกราและครอบครัวยังอยู่พร้อมหน้ ากัน ผลงานจากโนอาห์ บอมบาค ผู้สร้างภาพยนตร์ที่เข้าชิงรางวัลออสการ์ นำแสดงโดยสการ์เลตต์ โจแฮนส์สัน, อดัม ไดรเวอร์, ลอร่า เดิร์น, อลัน อัลดา และเรย์ ลิออตต้า


    Duration : 2 h 16 min
    Overall bit rate : 6 754 kb/s
    Encoded date : UTC 2019-12-13 02:18:35
    Writing application : mkvmerge v41.0.0 ('Smarra') 64-bit
    Writing library : libebml v1.3.9 + libmatroska v1.5.2
    Cover : Yes
    Attachments : cover

    Video
    ID : 1
    Format : HEVC
    Format/Info : High Efficiency Video Coding
    Format profile : Main [email protected]@Main
    HDR format : SMPTE ST 2086, HDR10 compatible
    Codec ID : V_MPEGH/ISO/HEVC
    Duration : 2 h 16 min
    Bit rate : 5 891 kb/s
    Width : 1 920 pixels
    Height : 1 080 pixels
    Display aspect ratio : 16:9
    Frame rate mode : Constant
    Frame rate : 24.000 FPS
    Color space : YUV
    Chroma subsampling : 4:2:0 (Type 2)
    Bit depth : 10 bits
    Bits/(Pixel*Frame) : 0.118
    Stream size : 5.62 GiB (87%)
    Default : Yes
    Forced : No
    Color range : Limited
    Color primaries : BT.2020
    Transfer characteristics : PQ
    Matrix coefficients : BT.2020 non-constant
    Mastering display color primaries : Display P3
    Mastering display luminance : min: 0.0001 cd/m2, max: 1000 cd/m2
    Maximum Content Light Level : 262 cd/m2
    Maximum Frame-Average Light Level : 61 cd/m2

    Audio
    ID : 2
    Format : E-AC-3
    Format/Info : Enhanced AC-3
    Commercial name : Dolby Digital Plus
    Codec ID : A_EAC3
    Duration : 2 h 16 min
    Bit rate mode : Constant
    Bit rate : 640 kb/s
    Channel(s) : 6 channels
    Channel layout : L R C LFE Ls Rs
    Sampling rate : 48.0 kHz
    Frame rate : 31.250 FPS (1536 SPF)
    Compression mode : Lossy
    Stream size : 627 MiB (9%)
    Language : English
    Service kind : Complete Main
    Default : Yes
    Forced : No

    Text #1
    ID : 3
    Format : VobSub
    Muxing mode : zlib
    Codec ID : S_VOBSUB
    Codec ID/Info : Picture based subtitle format used on DVDs
    Duration : 2 h 11 min
    Bit rate : 21.9 kb/s
    Count of elements : 2796
    Stream size : 20.6 MiB (0%)
    Language : English
    Default : No
    Forced : No

    Text #2
    ID : 4
    Format : UTF-8
    Codec ID : S_TEXT/UTF8
    Codec ID/Info : UTF-8 Plain Text
    Duration : 2 h 11 min
    Bit rate : 102 b/s
    Count of elements : 2796
    Stream size : 98.3 KiB (0%)
    Language : English
    Default : No
    Forced : No

    Text #3
    ID : 5
    Format : PGS
    Muxing mode : zlib
    Codec ID : S_HDMV/PGS
    Codec ID/Info : Picture based subtitle format used on BDs/HD-DVDs
    Duration : 2 h 11 min
    Bit rate : 98.9 kb/s
    Count of elements : 5592
    Stream size : 93.0 MiB (1%)
    Title : Gray
    Language : English
    Default : No
    Forced : No

    Text #4
    ID : 6
    Format : PGS
    Muxing mode : zlib
    Codec ID : S_HDMV/PGS
    Codec ID/Info : Picture based subtitle format used on BDs/HD-DVDs
    Duration : 2 h 11 min
    Bit rate : 98.9 kb/s
    Count of elements : 5592
    Stream size : 93.0 MiB (1%)
    Title : White
    Language : English
    Default : No
    Forced : No

    Text #5
    ID : 7
    Format : PGS
    Muxing mode : zlib
    Codec ID : S_HDMV/PGS
    Codec ID/Info : Picture based subtitle format used on BDs/HD-DVDs
    Duration : 2 h 11 min
    Bit rate : 98.9 kb/s
    Count of elements : 5592
    Stream size : 93.0 MiB (1%)
    Title : Yellow
    Language : English
    Default : No
    Forced : No

    Text #6
    ID : 8
    Format : VobSub
    Muxing mode : zlib
    Codec ID : S_VOBSUB
    Codec ID/Info : Picture based subtitle format used on DVDs
    Duration : 2 h 15 min
    Bit rate : 16.3 kb/s
    Count of elements : 2587
    Stream size : 15.9 MiB (0%)
    Language : Thai
    Default : No
    Forced : No

    Text #7
    ID : 9
    Format : UTF-8
    Codec ID : S_TEXT/UTF8
    Codec ID/Info : UTF-8 Plain Text
    Duration : 2 h 15 min
    Bit rate : 215 b/s
    Count of elements : 2587
    Stream size : 214 KiB (0%)
    Language : Thai
    Default : No
    Forced : No

    Text #8
    ID : 10
    Format : PGS
    Muxing mode : zlib
    Codec ID : S_HDMV/PGS
    Codec ID/Info : Picture based subtitle format used on BDs/HD-DVDs
    Duration : 2 h 15 min
    Bit rate : 76.0 kb/s
    Count of elements : 5174
    Stream size : 73.9 MiB (1%)
    Title : Gray
    Language : Thai
    Default : No
    Forced : No

    Text #9
    ID : 11
    Format : PGS
    Muxing mode : zlib
    Codec ID : S_HDMV/PGS
    Codec ID/Info : Picture based subtitle format used on BDs/HD-DVDs
    Duration : 2 h 15 min
    Bit rate : 76.0 kb/s
    Count of elements : 5174
    Stream size : 73.9 MiB (1%)
    Title : White
    Language : Thai
    Default : Yes
    Forced : No

    Text #10
    ID : 12
    Format : PGS
    Muxing mode : zlib
    Codec ID : S_HDMV/PGS
    Codec ID/Info : Picture based subtitle format used on BDs/HD-DVDs
    Duration : 2 h 15 min
    Bit rate : 76.0 kb/s
    Count of elements : 5174
    Stream size : 73.9 MiB (1%)
    Title : Yellow
    Language : Thai
    Default : No
    Forced : No




    Download: cornfile
    http://cornfile.com/b7i3gf3b545f
    Download: mekafile
    http://www.filecondo.com/dl.php?f=6A5bcec2MN2b

  2. The Following 2 Users Say Thank You to Duckload.us For This Useful Post:

    jackjangri (01-06-2020), Tatum03 (09-08-2020)

  3. #2
    Senior Member
    สมัครเมื่อ
    Jun 2014
    โพสต์
    5,124
    Thanks
    0
    Thanked 0 Times in 0 Posts
    ขอบคุณครับ

  4. #3
    Senior Member
    สมัครเมื่อ
    Oct 2013
    ที่อยู่
    Thailand
    โพสต์
    1,403
    Thanks
    1,271
    Thanked 0 Times in 0 Posts
    ขอบคุณมาก

+ ตอบกลับกระทู้

ข้อมูลกระทู้

Users Browsing this Thread

ในขณะนี้มี 1 ท่านดูกระทู้อยู่. (0 สมาชิกและ 1 ผู้เยี่ยมชม)

     

กฎการโพสต์ข้อความ

  • ท่าน ไม่สามารถ ตั้งกระทู้ใหม่ได้
  • ท่าน ไม่สามารถ ตอบกระทู้ได้
  • ท่าน ไม่สามารถ แนบไฟล์ได้
  • ท่าน ไม่สามารถ แก้ไขข้อความโพสต์ได้
  • BB code สถานะ เปิด
  • Smilies สถานะ เปิด
  • [IMG] สถานะ เปิด
  • HTML สถานะ ปิด