+ ตอบกลับกระทู้
สรุปผลการค้นหา 1 ถึง 2 จากทั้งหมด 2
  1. #1
    Administrators รูปส่วนตัว Duckload.us
    สมัครเมื่อ
    Dec 2010
    โพสต์
    109,953
    Thanks
    7
    Thanked 115,332 Times in 52,772 Posts

    Question (V1.ไม่ต้องใช้เสียงพากย์และซับ)-A Shaun The Sheep [2019] Movie Farmageddon -[WebDL.720p.X264.Mp4][Soundtrack AAC 2.0][SUB:NO]



    การ์ตูนในรูปแบบ Stop Motion ไม่จำเป็นต้องใช้เสียงพากย์และซับก็เข้าใจ' ครับ

    เมื่อยานอวกาศของมนุษย์ต่างดาวที่มีพลังพิเศษตกลงมาบ นโลกใกล้กับ Mossy Bottom Farm ฌอน the Sheep ก็ออกเดินทางไปทำภารกิจเพื่อดูแลผู้มาเยี่ยมเยือน ก่อนที่องค์กรชั่วร้ายจะจับเธอได้

    Format : MPEG-4
    Format profile : Base Media
    Codec ID : isom (isom/iso2/avc1/mp41)
    File size : 1.86 GiB
    Duration : 1 h 17 min
    Overall bit rate mode : Constant
    Overall bit rate : 3 452 kb/s
    Writing application : Lavf57.71.100

    Video
    ID : 1
    Format : AVC
    Format/Info : Advanced Video Codec
    Format profile : [email protected]
    Format settings : CABAC / 1 Ref Frames
    Format settings, CABAC : Yes
    Format settings, Reference : 1 frame
    Format settings, GOP : M=1, N=25
    Codec ID : avc1
    Codec ID/Info : Advanced Video Coding
    Duration : 1 h 17 min
    Duration_LastFrame : -25 ms
    Bit rate mode : Constant
    Bit rate : 3 253 kb/s
    Width : 1 280 pixels
    Height : 540 pixels
    Display aspect ratio : 2.40:1
    Frame rate mode : Constant
    Frame rate : 29.970 (30000/1001) FPS
    Color space : YUV
    Chroma subsampling : 4:2:0
    Bit depth : 8 bits
    Scan type : Progressive
    Bits/(Pixel*Frame) : 0.157
    Stream size : 1.75 GiB (94%)
    Codec configuration box : avcC

    Audio
    ID : 2
    Format : AAC LC
    Format/Info : Advanced Audio Codec Low Complexity
    Codec ID : mp4a-40-2
    Duration : 1 h 17 min
    Bit rate mode : Constant
    Bit rate : 196 kb/s
    Channel(s) : 2 channels
    Channel layout : L R
    Sampling rate : 44.1 kHz
    Frame rate : 43.066 FPS (1024 SPF)
    Compression mode : Lossy
    Stream size : 108 MiB (6%)
    Default : Yes
    Alternate group : 1






    Download: cornfile
    http://cornfile.com/9tasavvx2een
    Download: mekafile
    http://www.mekafile.com/dl.php?f=JA91cdc3QqhX

  2. #2
    Senior Member
    สมัครเมื่อ
    Jun 2014
    โพสต์
    2,036
    Thanks
    0
    Thanked 0 Times in 0 Posts
    ขอบคุณครับ

+ ตอบกลับกระทู้

ข้อมูลกระทู้

Users Browsing this Thread

ในขณะนี้มี 1 ท่านดูกระทู้อยู่. (0 สมาชิกและ 1 ผู้เยี่ยมชม)

     

กฎการโพสต์ข้อความ

  • ท่าน ไม่สามารถ ตั้งกระทู้ใหม่ได้
  • ท่าน ไม่สามารถ ตอบกระทู้ได้
  • ท่าน ไม่สามารถ แนบไฟล์ได้
  • ท่าน ไม่สามารถ แก้ไขข้อความโพสต์ได้
  • BB code สถานะ เปิด
  • Smilies สถานะ เปิด
  • [IMG] สถานะ เปิด
  • HTML สถานะ ปิด