เรื่องย่อ Arrow Season 4

ใน Arrow ซีซั่น 4 เราจะได้เห็น Damien Darhk และองค์กร H.I.V.E ของเขาในฐานะวายร้ายหลัก ส่วนวายร้ายอื่นๆที่ Oliver เจอมาตลอด 3 Season ก็จะมีความสัมพันธ์กับ A.R.G.U.S รวมไปถึงลีคนักฆ่าที่ได้ Malcolm Merlyn เป็นหัวหน้าคนใหม่ด้วย และArrow ซีซั่น 4 ซีซั่นนี้จัดหนัก บู๊แหลก ซัดกันมันส์ ไม่เว้นแม้กระทั่งแฮกเกอร์สาวโก๊ะแม่ศรีเรือนสุดสวย เฟลิซิตี้ สโมล์ค ที่คราวนี้ก็ได้บู๊กับเขาด้วย


Format : Matroska
Format version : Version 4
File size : 1.72 GiB
Duration : 42 min 25 s
Overall bit rate : 5 797 kb/s
Movie name : Arrow.S04E18.1080p.WEB-DL.DD5.1.H264-siambit.me
Encoded date : UTC 2019-09-21 12:50:14
Writing application : mkvmerge v37.0.0 ('Leave It') 64-bit
Writing library : libebml v1.3.9 + libmatroska v1.5.2
Cover : Yes
Attachments : small_cover.jpg / cover.jpg / cover_land.jpg / small_cover_land.jpg

Video
ID : 1
Format : AVC
Format/Info : Advanced Video Codec
Format profile : [email protected]
Format settings : CABAC / 4 Ref Frames
Format settings, CABAC : Yes
Format settings, RefFrames : 4 frames
Codec ID : V_MPEG4/ISO/AVC
Duration : 42 min 25 s
Bit rate : 5 029 kb/s
Width : 1 912 pixels
Height : 1 072 pixels
Display aspect ratio : 16:9
Frame rate mode : Constant
Frame rate : 23.976 (23976/1000) FPS
Color space : YUV
Chroma subsampling : 4:2:0
Bit depth : 8 bits
Scan type : Progressive
Bits/(Pixel*Frame) : 0.102
Stream size : 1.49 GiB (87%)
Title : Arrow.S04E18.1080p.WEB-DL.DD5.1.H264-siambit.me
Language : English
Default : Yes
Forced : No
Color range : Limited
Color primaries : BT.709
Transfer characteristics : BT.709
Matrix coefficients : BT.709

Audio #1
ID : 2
Format : AAC LC
Format/Info : Advanced Audio Codec Low Complexity
Codec ID : A_AAC-2
Duration : 42 min 25 s
Bit rate : 384 kb/s
Channel(s) : 6 channels
Channel layout : C L R Ls Rs LFE
Sampling rate : 48.0 kHz
Frame rate : 46.875 FPS (1024 SPF)
Compression mode : Lossy
Stream size : 116 MiB (7%)
Language : Thai
Default : Yes
Forced : Yes

Audio #2
ID : 3
Format : AC-3
Format/Info : Audio Coding 3
Commercial name : Dolby Digital
Codec ID : A_AC3
Duration : 42 min 25 s
Bit rate mode : Constant
Bit rate : 384 kb/s
Channel(s) : 6 channels
Channel layout : L R C LFE Ls Rs
Sampling rate : 48.0 kHz
Frame rate : 31.250 FPS (1536 SPF)
Bit depth : 16 bits
Compression mode : Lossy
Stream size : 117 MiB (7%)
Title : Arrow.S04E18.1080p.WEB-DL.DD5.1.H264-siambit.me
Language : English
Service kind : Complete Main
Default : No
Forced : No

Text
ID : 4
Format : UTF-8
Codec ID : S_TEXT/UTF8
Codec ID/Info : UTF-8 Plain Text
Duration : 41 min 18 s
Bit rate : 81 b/s
Count of elements : 830
Stream size : 24.7 KiB (0%)
Default : Yes
Forced : No




1
http://www.filecondo.com/dl.php?f=Q8490f1IQfMx
2
http://www.filecondo.com/dl.php?f=7c22541IQfNw
3
http://www.filecondo.com/dl.php?f=ud39691IQfOx
4
http://www.filecondo.com/dl.php?f=Lf72091IQfPt
5
http://www.filecondo.com/dl.php?f=Xb5bce1IQfQq
6
http://www.filecondo.com/dl.php?f=ja48c91IQfRo
7
http://www.filecondo.com/dl.php?f=x2ccd41IQfSm
8
http://www.filecondo.com/dl.php?f=2ab2c11IQfTm
9
http://www.filecondo.com/dl.php?f=w940e61IQfUj
10
http://www.filecondo.com/dl.php?f=Lc84671IQfVL
11
http://www.filecondo.com/dl.php?f=Yc6c9e1IQfXa
12
http://www.filecondo.com/dl.php?f=D8501b1IQfZ7
13
http://www.filecondo.com/dl.php?f=Ge05f91IQg05
14
http://www.filecondo.com/dl.php?f=T90f601IQg15
15
http://www.filecondo.com/dl.php?f=715ad61IQg22
16
http://www.filecondo.com/dl.php?f=Z0d8951IQg2Z
17
http://www.filecondo.com/dl.php?f=Sb5b8b1IQg3X
18
http://www.filecondo.com/dl.php?f=bf2d4e1IQg4Y
19
http://www.filecondo.com/dl.php?f=ie84691IQg5W
20
http://www.filecondo.com/dl.php?f=Sc850b1IQg6T
21
http://www.filecondo.com/dl.php?f=F6dad41IQg7Q
22
http://www.filecondo.com/dl.php?f=s08ec41IQg8O
23
http://www.filecondo.com/dl.php?f=pe95271IQg9H