+ ͺѺз
ػšä 1 ֧ 6 ҡ 6
  1. #1
    Administrators ٻǹ Duckload.us
    Ѥ
    Dec 2010
    ʵ
    114,610
    Thanks
    7
    Thanked 120,930 Times in 54,360 Posts

    Cool [NETFLIX] Titans (2019) ䷷ѹ Season 2 [:ѧ] [1080p][§ѧAC-3][h264][Ѻµ鹩ѺNETFLIX PGS+Vobsub ]






    Format : Matroska
    Format version : Version 4 / Version 2
    File size : 1.69 GiB
    Duration : 52 min 55 s
    Overall bit rate mode : Variable
    Overall bit rate : 4 575 kb/s
    Movie name : [email protected]
    Encoded date : UTC 2020-01-10 13:58:54
    Writing application : mkvmerge v41.0.0 ('Smarra') 64-bit
    Writing library : libebml v1.3.9 + libmatroska v1.5.2

    Video
    ID : 1
    Format : AVC
    Format/Info : Advanced Video Codec
    Format profile : [email protected]
    Format settings, CABAC : Yes
    Format settings, RefFrames : 3 frames
    Codec ID : V_MPEG4/ISO/AVC
    Duration : 52 min 55 s
    Bit rate mode : Variable
    Bit rate : 4 020 kb/s
    Maximum bit rate : 6 030 kb/s
    Width : 1 920 pixels
    Height : 1 080 pixels
    Display aspect ratio : 16:9
    Frame rate mode : Constant
    Frame rate : 23.976 (24000/1001) FPS
    Color space : YUV
    Chroma subsampling : 4:2:0
    Bit depth : 8 bits
    Scan type : Progressive
    Bits/(Pixel*Frame) : 0.081
    Stream size : 1.45 GiB (86%)
    Default : Yes
    Forced : No
    Comment : NETFLIX BY ARGON

    Audio
    ID : 2
    Format : E-AC-3
    Format/Info : Enhanced Audio Coding 3
    Format settings, Endianness : Big
    Codec ID : A_EAC3
    Duration : 52 min 55 s
    Bit rate mode : Constant
    Bit rate : 640 kb/s
    Channel(s) : 6 channels
    Channel positions : Front: L C R, Side: L R, LFE
    Sampling rate : 48.0 kHz
    Frame rate : 187.500 FPS (256 SPF)
    Compression mode : Lossy
    Stream size : 242 MiB (14%)
    Title : EN AC3
    Language : English
    Service kind : Complete Main
    Default : Yes
    Forced : No

    Text #1
    ID : 3
    Format : PGS
    Muxing mode : zlib
    Codec ID : S_HDMV/PGS
    Codec ID/Info : Picture based subtitle format used on BDs/HD-DVDs
    Duration : 51 min 57 s
    Bit rate : 18.7 kb/s
    Count of elements : 1260
    Stream size : 6.96 MiB (0%)
    Title : TH_PGS
    Language : Thai
    Default : Yes
    Forced : No

    Text #2
    ID : 4
    Format : VobSub
    Muxing mode : zlib
    Codec ID : S_VOBSUB
    Codec ID/Info : Picture based subtitle format used on DVDs
    Duration : 51 min 57 s
    Bit rate : 8 652 b/s
    Count of elements : 629
    Stream size : 3.22 MiB (0%)
    Title : TH_VOBSUB
    Language : Thai
    Default : No
    Forced : No

    Text #3
    ID : 5
    Format : VobSub
    Muxing mode : zlib
    Codec ID : S_VOBSUB
    Codec ID/Info : Picture based subtitle format used on DVDs
    Duration : 51 min 57 s
    Bit rate : 8 648 b/s
    Count of elements : 629
    Stream size : 3.21 MiB (0%)
    Title : TH_VOBSUB_YELLOW
    Language : Thai
    Default : No
    Forced : No









    Download: filecondo
    1
    http://www.filecondo.com/dl.php?f=rd13f81IQwYR
    2
    http://www.filecondo.com/dl.php?f=mb02431IQwZL
    3
    http://www.filecondo.com/dl.php?f=la50291IQx0J
    4
    http://www.filecondo.com/dl.php?f=qfa9131IQx1G
    5
    http://www.filecondo.com/dl.php?f=Z9235b1IQx2G
    6
    http://www.filecondo.com/dl.php?f=65ecaf1IQx3D
    7
    http://www.filecondo.com/dl.php?f=Ed03d41IQx4B
    8
    http://www.filecondo.com/dl.php?f=Ff7e7f1IQx5y
    9
    http://www.filecondo.com/dl.php?f=x1330c1IQx6y
    10
    http://www.filecondo.com/dl.php?f=Of21d81IQx7w
    11
    http://www.filecondo.com/dl.php?f=7de20e1IQx8x
    12
    http://www.filecondo.com/dl.php?f=mdece01IQx9s
    13
    http://www.filecondo.com/dl.php?f=Pc80e71IQxas

    Download: cornfile
    Titans.2019.S02E01.1080p.NF.APP-DL.DDP5.1.x264.mkv - 1.7 GB
    Titans.2019.S02E02.1080p.NF.APP-DL.DDP5.1.x264.mkv - 1.3 GB
    Titans.2019.S02E03.1080p.NF.APP-DL.DDP5.1.x264.mkv - 1.3 GB
    Titans.2019.S02E04.1080p.NF.APP-DL.DDP5.1.x264.mkv - 1.1 GB
    Titans.2019.S02E05.1080p.NF.APP-DL.DDP5.1.x264.mkv - 1.3 GB
    Titans.2019.S02E06.1080p.NF.APP-DL.DDP5.1.x264.mkv - 1.3 GB
    Titans.2019.S02E07.1080p.NF.APP-DL.DDP5.1.x264.mkv - 1.2 GB
    Titans.2019.S02E08.1080p.NF.APP-DL.DDP5.1.x264.mkv - 1.1 GB
    Titans.2019.S02E09.1080p.NF.APP-DL.DDP5.1.x264.mkv - 1.4 GB
    Titans.2019.S02E10.1080p.NF.APP-DL.DDP5.1.x264.mkv - 1.2 GB
    Titans.2019.S02E11.1080p.NF.APP-DL.DDP5.1.x264.mkv - 1.3 GB
    Titans.2019.S02E12.1080p.NF.APP-DL.DDP5.1.x264.mkv - 1.5 GB
    Titans.2019.S02E13.1080p.NF.APP-DL.DDP5.1.x264.mkv - 1.7 GB

    Download: mekafile
    1
    http://www.mekafile.com/dl.php?f=tO4c02c3VKvg
    2
    http://www.mekafile.com/dl.php?f=mm2964c3VKhn
    3
    http://www.mekafile.com/dl.php?f=Eh2e2fc3VKau
    4
    http://www.mekafile.com/dl.php?f=wpe991c3VKP8
    5
    http://www.mekafile.com/dl.php?f=hJd708c3VJCC
    6
    http://www.mekafile.com/dl.php?f=Iy8394c3VKIA
    7
    http://www.mekafile.com/dl.php?f=hgfa7dc3VK3P
    8
    http://www.mekafile.com/dl.php?f=a3caebc3VKBA
    9
    http://www.mekafile.com/dl.php?f=5X7546c3VJXa
    10
    http://www.mekafile.com/dl.php?f=b37acbc3VJQa
    11
    http://www.mekafile.com/dl.php?f=l6ce55c3VKo9
    12
    http://www.mekafile.com/dl.php?f=234331c3VJJC
    13
    http://www.mekafile.com/dl.php?f=vsccc7c3VKW8

  2. The Following 3 Users Say Thank You to Duckload.us For This Useful Post:

    Erik (04-01-2020), gaszolineskywalker (02-16-2020), Wesker_TOT (01-13-2020)

  3. #2
    Senior Member
    Ѥ
    Jun 2014
    ʵ
    3,811
    Thanks
    0
    Thanked 0 Times in 0 Posts
    ͺسѺ

  4. #3
    Senior Member
    Ѥ
    Dec 2013
    ʵ
    2,090
    Thanks
    4,010
    Thanked 0 Times in 0 Posts
    ͺسФѺ...

  5. #4
    Senior Member
    Ѥ
    Jul 2012
    ʵ
    6,727
    Thanks
    0
    Thanked 0 Times in 0 Posts
    ͺسҡ

  6. #5
    Senior Member
    Ѥ
    Oct 2012
    ʵ
    1,023
    Thanks
    1,965
    Thanked 0 Times in 0 Posts
    ͺسѺ

  7. #6
    Senior Member
    Ѥ
    Jan 2014
    ʵ
    203
    Thanks
    0
    Thanked 0 Times in 0 Posts
    ͺسҡ

šз

Users Browsing this Thread

㹢й 1 ҹ١з. (0 Ҫԡ 1 )

     

ʵͤ

  • ҹ ö 駡з
  • ҹ ö ͺз
  • ҹ ö
  • ҹ ö 䢢ͤʵ