Quote:

Dracula Season 1 Complete (2020) : แดร็กคูลา

หลัง โจนาธาน ฮาร์เกอร์ (จอห์น เฮฟเฟอร์นาน) ทนายอังกฤษดวงกุดหนีออกมาจากปราสาทของ เคาต์แดร็กคูลา (แคลส แบง) เจ้าชายผีดิบรูปงามที่เปลี่ยนเขาให้กลายเป็นสมุนอมนุ ษย์ เขาได้บอกเล่าเรื่องราวสุดสยองที่ได้พบเจอให้แก่ ซิสเตอร์อกาธา (ดอลลี เวลส์) แม่ชีนักล่าแวมไพร์ตระกูล แวน เฮลซิง แต่เมื่อเรื่องราวบรรจบกับเวลาราตรีปัจจุบัน สำนักชีที่เหมือนปราการของพระเจ้าก็ต้องเผชิญศึกจาก เคาต์แดร็กคูลา ผู้หมายมาเอาตัว มีนา ฮาร์เกอร์ (มอร์ฟีดด์ คลาร์ก) คู่หมั้นของโจนาธานเพื่อเอาไปเป็นเจ้าสาวแห่งรัตติกา ลของเขาต่อไป งานนี้ซิสเตอร์อกาธาจะกำราบปีศาจร้ายอย่างแดร็กคูลาแ ละปกป้องทุกคนจากความตายได้หรือไม่

สิ่งหนึ่งที่ต้องขอบอกไว้ก่อนจะตัดสิน มินิซีรีส์ 3 ตอนจบนี้ว่าเป็นเพียงเหล้าเก่าในขวดใหม่ก็คือ เรื่องย่อที่เราเพิ่งเล่าไปเป็นเพียงแค่เรื่องย่อของ ตอนแรกเท่านั้น ! ใช่ครับ เพราะอีก 2 ตอนที่เหลือล้วนเต็มไปด้วยการดำเนินเรื่องที่เกินคาด เดา ด้วยว่า Dracula ฉบับนี้เป็นไอเดียของ มาร์ค เกทิสส์ และ สตีเฟน มอฟแฟตต์ สองครีเอเตอร์ที่เคยกุมบังเหียน Sherlock ซีรีส์เชอร์ล็อค โฮมส์ สุดฮิตของ BBC ที่คราวนี้ก็มาจับมือกับ Netflix และดึงพวกเขามาคิดมาเขย่าไอเดียเล่าเรื่องแดร็กคูลาใ นมุมมองใหม่ ซึ่งเอาเข้าจริงเราก็ผ่านหนัง-ซีรีส์แวมไพร์กันมาจนเฝือแล้ว และส่วนใหญ่ก็หนีไม่ค่อยพ้นสิ่งที่ บราม สโตเกอร์ ผู้ประพันธ์นิยาย Dracula กล่าวไว้สักเท่าไหร่ด้วยกฎเกณฑ์ซ้ำ ๆ ซาก ๆ ทั้งเรื่องกลัวแสงแดด แพ้ไม้กางเขน สร้างสมุน และตามหาเจ้าสาวรัตติกาล ซึ่ง Dracula ฉบับมินิซีรีส์นี้ก็ยังนำเอาแนวคิดดังกล่าวมาปรับใช้ แต่ที่โดดเด่นมาก และไม่มีหนังแดร็กคูลาเรื่องไหนเคยทำคือการตั้งคำถาม ดังนั้นเราเลยเห็นการเล่าเรื่องในมุมมองของ ซิสเตอร์อกาธา ซึ่งโดยปกติตัวละครแม่ชีมักเป็นแค่ตัวประกอบ แต่ Dracula ก็เพิ่มรายละเอียดเข้าไปว่าเธอสืบเชื้อสายมาจากตระกู ล แวน เฮลซิง หรือผู้ที่ปราบเคาต์ วลาด แดร็กคูลา ได้สำเร็จนั้นแหละครับ ซึ่งซีรีส์ก็เล่นกับชื่อ นามสกุล ตัวละครในนิยายฉบับ บราม สโตเกอร์ อย่างสนุกสนานทีเดียว




Quote:


Video
ID : 1
Format : AVC
Format/Info : Advanced Video Codec
Format profile : [email protected]
Format settings : CABAC / 5 Ref Frames
Format settings, CABAC : Yes
Format settings, RefFrames : 5 frames
Codec ID : V_MPEG4/ISO/AVC
Duration : 1 h 29 min
Bit rate : 52.7 Mb/s
Width : 3 840 pixels
Height : 2 160 pixels
Display aspect ratio : 16:9
Frame rate mode : Constant
Frame rate : 25.000 FPS
Color space : YUV
Chroma subsampling : 4:2:0
Bit depth : 8 bits
Scan type : Progressive
Bits/(Pixel*Frame) : 0.254
Stream size : 33.0 GiB (99%)
Writing library : x264 core 157 r2969 d4099dd
Encoding settings : cabac=1 / ref=5 / deblock=1:-3:-3 / analyse=0x3:0x133 / me=umh / subme=10 / psy=1 / psy_rd=1.00:0.15 / mixed_ref=1 / me_range=48 / chroma_me=1 / trellis=2 / 8x8dct=1 / cqm=0 / deadzone=21,11 / fast_pskip=0 / chroma_qp_offset=-3 / threads=12 / lookahead_threads=2 / sliced_threads=0 / nr=0 / decimate=0 / interlaced=0 / bluray_compat=0 / constrained_intra=0 / bframes=8 / b_pyramid=2 / b_adapt=2 / b_bias=0 / direct=3 / weightb=1 / open_gop=0 / weightp=2 / keyint=250 / keyint_min=25 / scenecut=40 / intra_refresh=0 / rc=crf / mbtree=0 / crf=20.0 / qcomp=0.60 / qpmin=0 / qpmax=69 / qpstep=4 / ip_ratio=1.30 / pb_ratio=1.20 / aq=3:0.80
Language : English
Default : Yes
Forced : No

Audio
ID : 2
Format : E-AC-3 JOC
Format/Info : Enhanced AC-3 with Joint Object Coding
Commercial name : Dolby Digital Plus with Dolby Atmos
Codec ID : A_EAC3
Duration : 1 h 29 min
Bit rate mode : Constant
Bit rate : 768 kb/s
Channel(s) : 6 channels
Channel layout : L R C LFE Ls Rs
Sampling rate : 48.0 kHz
Frame rate : 31.250 FPS (1536 SPF)
Compression mode : Lossy
Stream size : 492 MiB (1%)
Title : English
Language : English
Service kind : Complete Main
Default : Yes
Forced : No
Complexity index : 16
Number of dynamic objects : 15
Bed channel count : 1 channel
Bed channel configuration : LFE

Text #1
ID : 3
Format : UTF-8
Codec ID : S_TEXT/UTF8
Codec ID/Info : UTF-8 Plain Text
Duration : 1 h 27 min
Bit rate : 54 b/s
Count of elements : 1150
Stream size : 34.6 KiB (0%)
Language : English
Default : No
Forced : No

Text #2
ID : 4
Format : UTF-8
Codec ID : S_TEXT/UTF8
Codec ID/Info : UTF-8 Plain Text
Duration : 1 h 28 min
Bit rate : 61 b/s
Count of elements : 1395
Stream size : 39.9 KiB (0%)
Title : SDH
Language : English
Default : No
Forced : No

Text #3
ID : 5
Format : UTF-8
Codec ID : S_TEXT/UTF8
Codec ID/Info : UTF-8 Plain Text
Duration : 1 h 28 min
Bit rate : 87 b/s
Count of elements : 1114
Stream size : 56.8 KiB (0%)
Language : Arabic
Default : No
Forced : No

Text #4
ID : 6
Format : UTF-8
Codec ID : S_TEXT/UTF8
Codec ID/Info : UTF-8 Plain Text
Duration : 1 h 28 min
Bit rate : 48 b/s
Count of elements : 1103
Stream size : 31.5 KiB (0%)
Language : Czech
Default : No
Forced : No

Text #5
ID : 7
Format : UTF-8
Codec ID : S_TEXT/UTF8
Codec ID/Info : UTF-8 Plain Text
Duration : 1 h 28 min
Bit rate : 50 b/s
Count of elements : 933
Stream size : 32.8 KiB (0%)
Language : Danish
Default : No
Forced : No

Text #6
ID : 8
Format : UTF-8
Codec ID : S_TEXT/UTF8
Codec ID/Info : UTF-8 Plain Text
Duration : 1 h 28 min
Bit rate : 53 b/s
Count of elements : 1051
Stream size : 34.7 KiB (0%)
Language : German
Default : No
Forced : No

Text #7
ID : 9
Format : UTF-8
Codec ID : S_TEXT/UTF8
Codec ID/Info : UTF-8 Plain Text
Duration : 1 h 28 min
Bit rate : 87 b/s
Count of elements : 1082
Stream size : 56.6 KiB (0%)
Language : Greek
Default : No
Forced : No

Text #8
ID : 10
Format : UTF-8
Codec ID : S_TEXT/UTF8
Codec ID/Info : UTF-8 Plain Text
Duration : 1 h 28 min
Bit rate : 51 b/s
Count of elements : 1092
Stream size : 33.2 KiB (0%)
Language : Spanish
Default : No
Forced : No

Text #9
ID : 11
Format : UTF-8
Codec ID : S_TEXT/UTF8
Codec ID/Info : UTF-8 Plain Text
Duration : 1 h 28 min
Bit rate : 50 b/s
Count of elements : 1044
Stream size : 32.7 KiB (0%)
Title : European
Language : Spanish
Default : No
Forced : No

Text #10
ID : 12
Format : UTF-8
Codec ID : S_TEXT/UTF8
Codec ID/Info : UTF-8 Plain Text
Duration : 1 h 28 min
Bit rate : 46 b/s
Count of elements : 1038
Stream size : 29.8 KiB (0%)
Language : Finnish
Default : No
Forced : No

Text #11
ID : 13
Format : UTF-8
Codec ID : S_TEXT/UTF8
Codec ID/Info : UTF-8 Plain Text
Duration : 1 h 28 min
Bit rate : 55 b/s
Count of elements : 1104
Stream size : 36.1 KiB (0%)
Language : French
Default : No
Forced : No

Text #12
ID : 14
Format : UTF-8
Codec ID : S_TEXT/UTF8
Codec ID/Info : UTF-8 Plain Text
Duration : 1 h 28 min
Bit rate : 78 b/s
Count of elements : 1094
Stream size : 51.1 KiB (0%)
Language : Hebrew
Default : No
Forced : No

Text #13
ID : 15
Format : UTF-8
Codec ID : S_TEXT/UTF8
Codec ID/Info : UTF-8 Plain Text
Duration : 1 h 28 min
Bit rate : 49 b/s
Count of elements : 1110
Stream size : 31.9 KiB (0%)
Language : Hungarian
Default : No
Forced : No

Text #14
ID : 16
Format : UTF-8
Codec ID : S_TEXT/UTF8
Codec ID/Info : UTF-8 Plain Text
Duration : 1 h 28 min
Bit rate : 53 b/s
Count of elements : 1106
Stream size : 34.8 KiB (0%)
Language : Indonesian
Default : No
Forced : No

Text #15
ID : 17
Format : UTF-8
Codec ID : S_TEXT/UTF8
Codec ID/Info : UTF-8 Plain Text
Duration : 1 h 28 min
Bit rate : 49 b/s
Count of elements : 1085
Stream size : 32.3 KiB (0%)
Language : Italian
Default : No
Forced : No

Text #16
ID : 18
Format : UTF-8
Codec ID : S_TEXT/UTF8
Codec ID/Info : UTF-8 Plain Text
Duration : 1 h 28 min
Bit rate : 51 b/s
Count of elements : 1049
Stream size : 32.9 KiB (0%)
Language : Japanese
Default : No
Forced : No

Text #17
ID : 19
Format : UTF-8
Codec ID : S_TEXT/UTF8
Codec ID/Info : UTF-8 Plain Text
Duration : 1 h 28 min
Bit rate : 66 b/s
Count of elements : 1107
Stream size : 43.4 KiB (0%)
Language : Korean
Default : No
Forced : No

Text #18
ID : 20
Format : UTF-8
Codec ID : S_TEXT/UTF8
Codec ID/Info : UTF-8 Plain Text
Duration : 1 h 28 min
Bit rate : 51 b/s
Count of elements : 849
Stream size : 33.2 KiB (0%)
Language : Norwegian Bokmal
Default : No
Forced : No

Text #19
ID : 21
Format : UTF-8
Codec ID : S_TEXT/UTF8
Codec ID/Info : UTF-8 Plain Text
Duration : 1 h 28 min
Bit rate : 52 b/s
Count of elements : 963
Stream size : 34.2 KiB (0%)
Language : Dutch
Default : No
Forced : No

Text #20
ID : 22
Format : UTF-8
Codec ID : S_TEXT/UTF8
Codec ID/Info : UTF-8 Plain Text
Duration : 1 h 28 min
Bit rate : 51 b/s
Count of elements : 1062
Stream size : 33.1 KiB (0%)
Language : Polish
Default : No
Forced : No

Text #21
ID : 23
Format : UTF-8
Codec ID : S_TEXT/UTF8
Codec ID/Info : UTF-8 Plain Text
Duration : 1 h 28 min
Bit rate : 51 b/s
Count of elements : 1107
Stream size : 33.6 KiB (0%)
Language : Portuguese
Default : No
Forced : No

Text #22
ID : 24
Format : UTF-8
Codec ID : S_TEXT/UTF8
Codec ID/Info : UTF-8 Plain Text
Duration : 1 h 28 min
Bit rate : 51 b/s
Count of elements : 1089
Stream size : 33.5 KiB (0%)
Title : Brazilian
Language : Portuguese
Default : No
Forced : No

Text #23
ID : 25
Format : UTF-8
Codec ID : S_TEXT/UTF8
Codec ID/Info : UTF-8 Plain Text
Duration : 1 h 28 min
Bit rate : 59 b/s
Count of elements : 1057
Stream size : 38.5 KiB (0%)
Language : Romanian
Default : No
Forced : No

Text #24
ID : 26
Format : UTF-8
Codec ID : S_TEXT/UTF8
Codec ID/Info : UTF-8 Plain Text
Duration : 1 h 28 min
Bit rate : 86 b/s
Count of elements : 1072
Stream size : 56.1 KiB (0%)
Language : Russian
Default : No
Forced : No

Text #25
ID : 27
Format : UTF-8
Codec ID : S_TEXT/UTF8
Codec ID/Info : UTF-8 Plain Text
Duration : 1 h 28 min
Bit rate : 51 b/s
Count of elements : 1013
Stream size : 33.6 KiB (0%)
Language : Swedish
Default : No
Forced : No

Text #26
ID : 28
Format : UTF-8
Codec ID : S_TEXT/UTF8
Codec ID/Info : UTF-8 Plain Text
Duration : 1 h 28 min
Bit rate : 132 b/s
Count of elements : 1108
Stream size : 86.0 KiB (0%)
Language : Thai
Default : No
Forced : No

Text #27
ID : 29
Format : UTF-8
Codec ID : S_TEXT/UTF8
Codec ID/Info : UTF-8 Plain Text
Duration : 1 h 28 min
Bit rate : 51 b/s
Count of elements : 1012
Stream size : 33.5 KiB (0%)
Language : Turkish
Default : No
Forced : No

Text #28
ID : 30
Format : UTF-8
Codec ID : S_TEXT/UTF8
Codec ID/Info : UTF-8 Plain Text
Duration : 1 h 28 min
Bit rate : 78 b/s
Count of elements : 1106
Stream size : 51.2 KiB (0%)
Language : Vietnamese
Default : No
Forced : No

Text #29
ID : 31
Format : UTF-8
Codec ID : S_TEXT/UTF8
Codec ID/Info : UTF-8 Plain Text
Duration : 1 h 28 min
Bit rate : 52 b/s
Count of elements : 1110
Stream size : 34.2 KiB (0%)
Title : Simplified
Language : Chinese
Default : No
Forced : No

Text #30
ID : 32
Format : UTF-8
Codec ID : S_TEXT/UTF8
Codec ID/Info : UTF-8 Plain Text
Duration : 1 h 28 min
Bit rate : 49 b/s
Count of elements : 1109
Stream size : 32.2 KiB (0%)
Title : Traditional
Language : Chinese
Default : No
Forced : No











Download: cornfile
Dracula.2020.S01E01.The.Rules.Of.The.Beast.mkv - 33.5 GB
Dracula.2020.S01E02.Blood.Vessel.mkv - 21.5 GB
Dracula.2020.S01E03.The.Dark.Compass.mkv - 31.6 GB

Download: mekafile
1
http://www.mekafile.com/dl.php?f=MDf7d8c3VNF2
2
http://www.mekafile.com/dl.php?f=b29009c3VQfH
3
http://www.mekafile.com/dl.php?f=Pw541bc3VZ6R