+ ตอบกลับกระทู้
สรุปผลการค้นหา 1 ถึง 2 จากทั้งหมด 2
  1. #1
    Administrators รูปส่วนตัว Duckload.us
    สมัครเมื่อ
    Dec 2010
    โพสต์
    116,995
    Thanks
    7
    Thanked 123,299 Times in 55,256 Posts

    Question [ฝรั่ง]-((>x265<)) Abominable (2019) : เอเวอเรสต์ มนุษย์หิมะเพื่อนรัก [พากย์ไทย 5.1 + เสียงอังกฤษ DTS-HD MA 7.1]-[บรรยายไทย + อังกฤษ]-[เสียงไทย + ซับไทย From Blu-Ray MASTER + ซับ PGS คมชัด]



    Abominable_(2019)
    Abominable เอเวอเรสต์ มนุษย์หิมะเพื่อนรัก ผลงานล่าสุดจากดรีมเวิร์คส์ อนิเมชั่น สตูดิโอผู้สร้าง How To Train Your Dragon
    ที่จะพาผู้ชมไปผจญภัยสุดยิ่งใหญ่บนเส้นทาง 2 พันไมล์ จากเซี่ยงไฮ้สู่เทือกเขาหิมาลัย
    ยี สาววัยรุ่น (โดลอี้ เบนเนทท์ จาก Marvel’s Agents of S.H.I.E.L.D. บังเอิญพบเยติบนหลังคาอพาร์ทเมนต์ของเธอในเซี่ยงไฮ้
    เธอและเพื่อน ๆ จอมกวน ทั้ง จิน (เทนซิง นอร์เกย์ เทรนเนอร์) และเพ็ง (อัลเบิร์ต ซาย) ตั้งชื่อว่า “เอเวอเรสต์” และออกผจญภัย
    เพื่อพาเยติกลับไปพบกับครอบครัวที่จุดสูงสุดของโลก ทั้ง 3 คน ต้องเผชิญหน้ากับเบอร์นิช (เอ็ดดี้ อิซซาร์ด) เศรษฐีที่ตั้งใจจะจับตัวเยติ
    และนักสัตววิทยา ดร.ซาร่า (ซาร่าห์ พอลสัน) เพื่อช่วยเอเวอร์เรสต์กลับบ้าน!!!

    Code:
    Format                      : Matroska
    Format version              : Version 4 / Version 2
    File size                   : 6.80 GiB
    Duration                    : 1 h 37 min
    Overall bit rate            : 10.0 Mb/s
    Movie name                  : [email protected]aTos-Siambit
    
    Video
    ID                          : 1
    Format                      : HEVC
    Format/Info                 : High Efficiency Video Coding
    Format profile              : Main [email protected]@High
    Codec ID                    : V_MPEGH/ISO/HEVC
    Duration                    : 1 h 37 min
    Bit rate                    : 4 941 kb/s
    Width                       : 1 920 pixels
    Height                      : 1 040 pixels
    Display aspect ratio        : 1.85:1
    Frame rate mode             : Constant
    Frame rate                  : 23.976 (24000/1001) FPS
    Color space                 : YUV
    Chroma subsampling          : 4:2:0
    Bit depth                   : 10 bits
    Bits/(Pixel*Frame)          : 0.103
    Stream size                 : 3.36 GiB (49%)
    Title                       : [email protected]aTos-Siambit
    Writing library             : x265 - H.265/HEVC codec
    Encoding settings           : ls: / rskip / signh-i-d-e / tmvp / b-intra / lslices=4 / deblock(tC=-1:B=-1)
    Language                    : English
    Default                     : Yes
    Forced                      : No
    
    Audio #1
    ID                          : 2
    Format                      : AC-3
    Format/Info                 : Audio Coding 3
    Format settings, Endianness : Big
    Codec ID                    : A_AC3
    Duration                    : 1 h 37 min
    Bit rate mode               : Constant
    Bit rate                    : 640 kb/s
    Channel(s)                  : 6 channels
    Channel positions           : Front: L C R, Side: L R, LFE
    Sampling rate               : 48.0 kHz
    Frame rate                  : 31.250 FPS (1536 spf)
    Bit depth                   : 16 bits
    Compression mode            : Lossy
    Stream size                 : 445 MiB (6%)
    Title                       : Thai BluRay Master
    Language                    : Thai
    Service kind                : Complete Main
    Default                     : Yes
    Forced                      : Yes
    
    Audio #2
    ID                          : 3
    Format                      : DTS
    Format/Info                 : Digital Theater Systems
    Format profile              : MA / Core
    Mode                        : 16
    Format settings, Endianness : Big
    Codec ID                    : A_DTS
    Duration                    : 1 h 37 min
    Bit rate mode               : Variable / Constant
    Bit rate                    : 3 840 kb/s / 1 509 kb/s
    Channel(s)                  : 8 channels / 6 channels
    Channel positions           : Front: L C R, Side: L R, Back: L R, LFE / Front: L C R, Side: L R, LFE
    Sampling rate               : 48.0 kHz
    Frame rate                  : 93.750 FPS (512 spf)
    Bit depth                   : 24 bits
    Compression mode            : Lossless / Lossy
    Stream size                 : 2.65 GiB (39%)
    Title                       : English DTS-HD MA 7.1
    Language                    : English
    Default                     : No
    Forced                      : No
    
    Audio #3
    ID                          : 4
    Format                      : AC-3
    Format/Info                 : Audio Coding 3
    Format settings, Endianness : Big
    Codec ID                    : A_AC3
    Duration                    : 1 h 37 min
    Bit rate mode               : Constant
    Bit rate                    : 448 kb/s
    Channel(s)                  : 6 channels
    Channel positions           : Front: L C R, Side: L R, LFE
    Sampling rate               : 48.0 kHz
    Frame rate                  : 31.250 FPS (1536 spf)
    Bit depth                   : 16 bits
    Compression mode            : Lossy
    Stream size                 : 312 MiB (4%)
    Title                       : English AC3 5.1
    Language                    : English
    Service kind                : Complete Main
    Default                     : No
    Forced                      : No
    
    Text #1
    ID                          : 5
    Format                      : VobSub
    Muxing mode                 : zlib
    Codec ID                    : S_VOBSUB
    Codec ID/Info               : Picture based subtitle format used on DVDs
    Duration                    : 1 h 26 min
    Bit rate                    : 2 896 b/s
    Count of elements           : 1075
    Stream size                 : 1.80 MiB (0%)
    Title                       : Thai 720p
    Language                    : Thai
    Default                     : No
    Forced                      : No
    
    Text #2
    ID                          : 6
    Format                      : VobSub
    Muxing mode                 : zlib
    Codec ID                    : S_VOBSUB
    Codec ID/Info               : Picture based subtitle format used on DVDs
    Duration                    : 1 h 26 min
    Bit rate                    : 4 672 b/s
    Count of elements           : 1075
    Stream size                 : 2.90 MiB (0%)
    Title                       : Thai 1080p
    Language                    : Thai
    Default                     : Yes
    Forced                      : Yes
    
    Text #3
    ID                          : 7
    Format                      : VobSub
    Muxing mode                 : zlib
    Codec ID                    : S_VOBSUB
    Codec ID/Info               : Picture based subtitle format used on DVDs
    Duration                    : 1 h 26 min
    Bit rate                    : 4 666 b/s
    Count of elements           : 1075
    Stream size                 : 2.90 MiB (0%)
    Title                       : Thai 1080p Yellow
    Language                    : Thai
    Default                     : No
    Forced                      : No
    
    Text #4
    ID                          : 8
    Format                      : VobSub
    Muxing mode                 : zlib
    Codec ID                    : S_VOBSUB
    Codec ID/Info               : Picture based subtitle format used on DVDs
    Duration                    : 1 h 26 min
    Bit rate                    : 4 678 b/s
    Count of elements           : 1075
    Stream size                 : 2.91 MiB (0%)
    Title                       : Thai 1080p Out
    Language                    : Thai
    Default                     : No
    Forced                      : No
    
    Text #5
    ID                          : 9
    Format                      : VobSub
    Muxing mode                 : zlib
    Codec ID                    : S_VOBSUB
    Codec ID/Info               : Picture based subtitle format used on DVDs
    Duration                    : 1 h 26 min
    Bit rate                    : 6 098 b/s
    Count of elements           : 1075
    Stream size                 : 3.79 MiB (0%)
    Title                       : Thai 1080p BIG
    Language                    : Thai
    Default                     : No
    Forced                      : No
    
    Text #6
    ID                          : 10
    Format                      : VobSub
    Muxing mode                 : zlib
    Codec ID                    : S_VOBSUB
    Codec ID/Info               : Picture based subtitle format used on DVDs
    Duration                    : 1 h 26 min
    Bit rate                    : 6 110 b/s
    Count of elements           : 1075
    Stream size                 : 3.80 MiB (0%)
    Title                       : Thai 1080p Out [BIG]
    Language                    : Thai
    Default                     : No
    Forced                      : No
    
    Text #7
    ID                          : 11
    Format                      : PGS
    Muxing mode                 : zlib
    Codec ID                    : S_HDMV/PGS
    Codec ID/Info               : Picture based subtitle format used on BDs/HD-DVDs
    Duration                    : 1 h 35 min
    Bit rate                    : 6 387 b/s
    Count of elements           : 2145
    Stream size                 : 4.37 MiB (0%)
    Title                       : Thai PGS BluRay Master
    Language                    : Thai
    Default                     : No
    Forced                      : No
    
    Text #8
    ID                          : 12
    Format                      : PGS
    Muxing mode                 : zlib
    Codec ID                    : S_HDMV/PGS
    Codec ID/Info               : Picture based subtitle format used on BDs/HD-DVDs
    Duration                    : 1 h 26 min
    Bit rate                    : 15.7 kb/s
    Count of elements           : 2150
    Stream size                 : 9.77 MiB (0%)
    Title                       : Thai PGS Yellow
    Language                    : Thai
    Default                     : No
    Forced                      : No
    
    Text #9
    ID                          : 13
    Format                      : PGS
    Muxing mode                 : zlib
    Codec ID                    : S_HDMV/PGS
    Codec ID/Info               : Picture based subtitle format used on BDs/HD-DVDs
    Duration                    : 1 h 26 min
    Bit rate                    : 15.5 kb/s
    Count of elements           : 2150
    Stream size                 : 9.63 MiB (0%)
    Title                       : Thai PGS Out
    Language                    : Thai
    Default                     : No
    Forced                      : No
    
    Text #10
    ID                          : 14
    Format                      : PGS
    Muxing mode                 : zlib
    Codec ID                    : S_HDMV/PGS
    Codec ID/Info               : Picture based subtitle format used on BDs/HD-DVDs
    Duration                    : 1 h 35 min
    Bit rate                    : 12.5 kb/s
    Count of elements           : 3094
    Stream size                 : 8.56 MiB (0%)
    Title                       : English
    Language                    : English
    Default                     : No
    Forced                      : No
    
    Menu
    00:00:00.042                : :1
    00:04:12.919                : :2
    00:09:11.926                : :3
    00:13:43.239                : :4
    00:16:14.599                : :5
    00:21:35.753                : :6
    00:25:03.460                : :7
    00:29:31.436                : :8
    00:33:58.453                : :9
    00:36:44.786                : :10
    00:41:54.053                : :11
    00:46:31.706                : :12
    00:50:43.332                : :13
    00:56:32.598                : :14
    01:01:41.531                : :15
    01:06:34.199                : :16
    01:11:45.468                : :17
    01:15:27.356                : :18
    01:20:42.546                : :19
    01:26:45.409                : :20












    Download: cornfile
    http://cornfile.com/v80om47k6cph
    Download: mekafile
    http://www.mekafile.com/dl.php?f=OCb079c414C8

  2. #2
    Senior Member
    สมัครเมื่อ
    Jun 2014
    โพสต์
    4,331
    Thanks
    0
    Thanked 0 Times in 0 Posts
    ขอบคุณครับ

+ ตอบกลับกระทู้

ข้อมูลกระทู้

Users Browsing this Thread

ในขณะนี้มี 1 ท่านดูกระทู้อยู่. (0 สมาชิกและ 1 ผู้เยี่ยมชม)

     

กฎการโพสต์ข้อความ

  • ท่าน ไม่สามารถ ตั้งกระทู้ใหม่ได้
  • ท่าน ไม่สามารถ ตอบกระทู้ได้
  • ท่าน ไม่สามารถ แนบไฟล์ได้
  • ท่าน ไม่สามารถ แก้ไขข้อความโพสต์ได้
  • BB code สถานะ เปิด
  • Smilies สถานะ เปิด
  • [IMG] สถานะ เปิด
  • HTML สถานะ ปิด