+ ตอบกลับกระทู้
สรุปผลการค้นหา 1 ถึง 2 จากทั้งหมด 2
  1. #1
    Administrators รูปส่วนตัว Duckload.us
    สมัครเมื่อ
    Dec 2010
    โพสต์
    111,439
    Thanks
    7
    Thanked 116,879 Times in 53,187 Posts

    Question [ฝรั่ง]-[4K ULTRA HD] Maleficent: Mistress of Evil (2019) : มาเลฟิเซนต์: นางพญาปีศาจ [พากย์ไทย + เสียงอังกฤษ TrueHD 7.1.Atmos]-[บรรยายไทย + อังกฤษ]-[เสียงไทย + ซับไทย PGS คมชัด] 2160p.BluRay.REMUX.HEVC.DTS-HD.MA.TrueHD.7.1.Atmos



    เรื่องราวสานต่อจากภาคแรก เมื่อเจ้าหญิงออโรร่าต้องการแต่งงานกับเจ้าชายแต่ มาเลฟิเซนต์ไม่เห็นด้วย ก่อให้เกิดชนวนศึกครั้งใหม่ เมื่อราชินีอิงกริต (รับบทโดยมิเชล ไฟเฟอร์) ตั้งกองกำลังทหารเพื่อสู้กับมาเลฟิเซนต์ และ เผ่าพันธุ์สัตว์วิเศษ เรื่องราวก้าวข้ามเทพนิยายสู่แอคชั่นแฟนตาซีฟอร์มยัก ษ์ และการกลับมาอีกครั้งของ แองเจลิน่า โจลี่ สยายปีกนางฟ้าปีศาจในบทของมาเลฟิเซนต์!!!

    Code:
    Format                                   : Matroska
    Format version                           : Version 4
    File size                                : 59.8 GiB
    Duration                                 : 1 h 59 min
    Overall bit rate mode                    : Variable
    Overall bit rate                         : 71.9 Mb/s
    Movie name                               : Maleficent.Mistress.Of.Evil.2019.2160p.BluRay.REMUX.HEVC.DTS-HD.MA.TrueHD.7.1.Atmos-FGT
    Encoded date                             : UTC 2020-01-06 18:01:48
    Writing application                      : mkvmerge v42.0.0 ('Overtime') 64-bit
    Writing library                          : libebml v1.3.10 + libmatroska v1.5.2
    Cover                                    : Yes
    Attachments                              : small_cover.jpg / small_cover_land.jpg / cover.jpg / cover_land.jpg
    
    Video
    ID                                       : 1
    Format                                   : HEVC
    Format/Info                              : High Efficiency Video Coding
    Format profile                           : Main [email protected]@High
    HDR format                               : SMPTE ST 2086, HDR10 compatible
    Codec ID                                 : V_MPEGH/ISO/HEVC
    Duration                                 : 1 h 58 min
    Bit rate                                 : 52.9 Mb/s
    Width                                    : 3 840 pixels
    Height                                   : 2 160 pixels
    Display aspect ratio                     : 16:9
    Frame rate mode                          : Constant
    Frame rate                               : 23.976 (24000/1001) FPS
    Color space                              : YUV
    Chroma subsampling                       : 4:2:0 (Type 2)
    Bit depth                                : 10 bits
    Bits/(Pixel*Frame)                       : 0.266
    Stream size                              : 43.9 GiB (73%)
    Title                                    : Maleficent.Mistress.Of.Evil.2019.2160p.BluRay.REMUX.HEVC.DTS-HD.MA.TrueHD.7.1.Atmos-FGT
    Writing library                          : ATEME Titan File 3.9.0 (4.9.0.0)        
    Language                                 : English
    Default                                  : No
    Forced                                   : No
    Color range                              : Limited
    Color primaries                          : BT.2020
    Transfer characteristics                 : PQ
    Matrix coefficients                      : BT.2020 non-constant
    Mastering display color primaries        : Display P3
    Mastering display luminance              : min: 0.0001 cd/m2, max: 1000 cd/m2
    
    Audio #1
    ID                                       : 2
    Format                                   : MLP FBA 16-ch
    Format/Info                              : Meridian Lossless Packing FBA with 16-channel presentation
    Commercial name                          : Dolby TrueHD with Dolby Atmos
    Codec ID                                 : A_TRUEHD
    Duration                                 : 1 h 58 min
    Bit rate mode                            : Variable
    Bit rate                                 : 5 128 kb/s
    Maximum bit rate                         : 8 160 kb/s
    Channel(s)                               : 8 channels
    Channel layout                           : L R C LFE Ls Rs Lb Rb
    Sampling rate                            : 48.0 kHz
    Frame rate                               : 1 200.000 FPS (40 SPF)
    Compression mode                         : Lossless
    Stream size                              : 4.26 GiB (7%)
    Title                                    : Maleficent.Mistress.Of.Evil.2019.2160p.BluRay.REMUX.HEVC.DTS-HD.MA.TrueHD.7.1.Atmos-FGT
    Language                                 : English
    Default                                  : Yes
    Forced                                   : No
    Number of dynamic objects                : 13
    Bed channel count                        : 1 channel
    Bed channel configuration                : LFE
    
    Audio #2
    ID                                       : 3
    Format                                   : DTS XLL
    Format/Info                              : Digital Theater Systems
    Commercial name                          : DTS-HD Master Audio
    Codec ID                                 : A_DTS
    Duration                                 : 1 h 58 min
    Bit rate mode                            : Variable
    Bit rate                                 : 3 922 kb/s
    Channel(s)                               : 8 channels
    Channel layout                           : C L R LFE Lb Rb Lss Rss
    Sampling rate                            : 48.0 kHz
    Frame rate                               : 93.750 FPS (512 SPF)
    Bit depth                                : 24 bits
    Compression mode                         : Lossless
    Stream size                              : 3.26 GiB (5%)
    Title                                    : Maleficent.Mistress.Of.Evil.2019.2160p.BluRay.REMUX.HEVC.DTS-HD.MA.TrueHD.7.1.Atmos-FGT
    Language                                 : English
    Default                                  : No
    Forced                                   : No
    
    Audio #3
    ID                                       : 4
    Format                                   : AC-3
    Format/Info                              : Audio Coding 3
    Commercial name                          : Dolby Digital
    Codec ID                                 : A_AC3
    Duration                                 : 1 h 58 min
    Bit rate mode                            : Constant
    Bit rate                                 : 640 kb/s
    Channel(s)                               : 6 channels
    Channel layout                           : L R C LFE Ls Rs
    Sampling rate                            : 48.0 kHz
    Frame rate                               : 31.250 FPS (1536 SPF)
    Bit depth                                : 16 bits
    Compression mode                         : Lossy
    Stream size                              : 544 MiB (1%)
    Title                                    : Maleficent.Mistress.Of.Evil.2019.2160p.BluRay.REMUX.HEVC.DTS-HD.MA.TrueHD.7.1.Atmos-FGT
    Language                                 : English
    Service kind                             : Complete Main
    Default                                  : No
    Forced                                   : No
    
    Audio #7
    ID                                       : 8
    Format                                   : AC-3
    Format/Info                              : Audio Coding 3
    Commercial name                          : Dolby Digital
    Codec ID                                 : A_AC3
    Duration                                 : 1 h 58 min
    Bit rate mode                            : Constant
    Bit rate                                 : 640 kb/s
    Channel(s)                               : 6 channels
    Channel layout                           : L R C LFE Ls Rs
    Sampling rate                            : 48.0 kHz
    Frame rate                               : 31.250 FPS (1536 SPF)
    Bit depth                                : 16 bits
    Compression mode                         : Lossy
    Stream size                              : 544 MiB (1%)
    Title                                    : Maleficent.Mistress.Of.Evil.2019.2160p.BluRay.REMUX.HEVC.DTS-HD.MA.TrueHD.7.1.Atmos-FGT
    Language                                 : French
    Service kind                             : Complete Main
    Default                                  : No
    Forced                                   : No
    
    Audio #8
    ID                                       : 9
    Format                                   : E-AC-3
    Format/Info                              : Enhanced AC-3
    Commercial name                          : Dolby Digital Plus
    Format profile                           : Blu-ray Disc
    Codec ID                                 : A_EAC3
    Duration                                 : 1 h 58 min
    Bit rate mode                            : Constant
    Bit rate                                 : 1 024 kb/s
    Channel(s)                               : 8 channels
    Channel layout                           : L R C LFE Ls Rs Lb Rb
    Sampling rate                            : 48.0 kHz
    Frame rate                               : 31.250 FPS (1536 SPF)
    Compression mode                         : Lossy
    Stream size                              : 871 MiB (1%)
    Title                                    : Maleficent.Mistress.Of.Evil.2019.2160p.BluRay.REMUX.HEVC.DTS-HD.MA.TrueHD.7.1.Atmos-FGT
    Language                                 : Spanish
    Service kind                             : Complete Main
    Default                                  : No
    Forced                                   : No
    
    Audio #16
    ID                                       : 32
    Format                                   : AC-3
    Format/Info                              : Audio Coding 3
    Commercial name                          : Dolby Digital
    Codec ID                                 : A_AC3
    Duration                                 : 1 h 58 min
    Bit rate mode                            : Constant
    Bit rate                                 : 384 kb/s
    Channel(s)                               : 2 channels
    Channel layout                           : L R
    Sampling rate                            : 48.0 kHz
    Frame rate                               : 31.250 FPS (1536 SPF)
    Bit depth                                : 16 bits
    Compression mode                         : Lossy
    Delay relative to video                  : 1 s 0 ms
    Stream size                              : 326 MiB (1%)
    Title                                    : Thai Master
    Language                                 : Thai
    Service kind                             : Complete Main
    Default                                  : No
    Forced                                   : Yes
    
    Text #1
    ID                                       : 17
    Format                                   : UTF-8
    Codec ID                                 : S_TEXT/UTF8
    Codec ID/Info                            : UTF-8 Plain Text
    Duration                                 : 1 h 52 min
    Bit rate                                 : 34 b/s
    Count of elements                        : 1145
    Stream size                              : 28.3 KiB (0%)
    Title                                    : English-SRT
    Language                                 : English
    Default                                  : Yes
    Forced                                   : No
    
    Text #2
    ID                                       : 18
    Format                                   : PGS
    Muxing mode                              : zlib
    Codec ID                                 : S_HDMV/PGS
    Codec ID/Info                            : Picture based subtitle format used on BDs/HD-DVDs
    Duration                                 : 1 h 53 min
    Bit rate                                 : 30.9 kb/s
    Count of elements                        : 3210
    Stream size                              : 25.0 MiB (0%)
    Title                                    : English-PGS
    Language                                 : English
    Default                                  : No
    Forced                                   : No
    
    Text #3
    ID                                       : 19
    Format                                   : PGS
    Muxing mode                              : zlib
    Codec ID                                 : S_HDMV/PGS
    Codec ID/Info                            : Picture based subtitle format used on BDs/HD-DVDs
    Duration                                 : 1 h 57 min
    Bit rate                                 : 18.9 kb/s
    Count of elements                        : 1960
    Stream size                              : 15.9 MiB (0%)
    Title                                    : French-PGS
    Language                                 : French
    Default                                  : No
    Forced                                   : No
    
    Text #4
    ID                                       : 20
    Format                                   : PGS
    Muxing mode                              : zlib
    Codec ID                                 : S_HDMV/PGS
    Codec ID/Info                            : Picture based subtitle format used on BDs/HD-DVDs
    Duration                                 : 1 h 57 min
    Bit rate                                 : 21.4 kb/s
    Count of elements                        : 2078
    Stream size                              : 18.0 MiB (0%)
    Title                                    : French-PGS
    Language                                 : French
    Default                                  : No
    Forced                                   : No
    
    Text #5
    ID                                       : 21
    Format                                   : PGS
    Muxing mode                              : zlib
    Codec ID                                 : S_HDMV/PGS
    Codec ID/Info                            : Picture based subtitle format used on BDs/HD-DVDs
    Duration                                 : 1 h 48 min
    Bit rate                                 : 21.2 kb/s
    Count of elements                        : 2022
    Stream size                              : 16.5 MiB (0%)
    Title                                    : Spanish-PGS
    Language                                 : Spanish
    Default                                  : No
    Forced                                   : No
    
    Text #6
    ID                                       : 22
    Format                                   : PGS
    Muxing mode                              : zlib
    Codec ID                                 : S_HDMV/PGS
    Codec ID/Info                            : Picture based subtitle format used on BDs/HD-DVDs
    Duration                                 : 1 h 57 min
    Bit rate                                 : 19.3 kb/s
    Count of elements                        : 2024
    Stream size                              : 16.2 MiB (0%)
    Title                                    : Italian-PGS
    Language                                 : Italian
    Default                                  : No
    Forced                                   : No
    
    Text #7
    ID                                       : 23
    Format                                   : PGS
    Muxing mode                              : zlib
    Codec ID                                 : S_HDMV/PGS
    Codec ID/Info                            : Picture based subtitle format used on BDs/HD-DVDs
    Duration                                 : 1 h 57 min
    Bit rate                                 : 19.0 kb/s
    Count of elements                        : 2138
    Stream size                              : 15.9 MiB (0%)
    Title                                    : German-PGS
    Language                                 : German
    Default                                  : No
    Forced                                   : No
    
    Text #16
    ID                                       : 33
    Format                                   : PGS
    Muxing mode                              : zlib
    Codec ID                                 : S_HDMV/PGS
    Codec ID/Info                            : Picture based subtitle format used on BDs/HD-DVDs
    Duration                                 : 1 h 58 min
    Bit rate                                 : 22.4 kb/s
    Count of elements                        : 2036
    Stream size                              : 19.0 MiB (0%)
    Title                                    : Thai PGS
    Language                                 : Thai
    Default                                  : No
    Forced                                   : No
    
    Text #17
    ID                                       : 34
    Format                                   : VobSub
    Muxing mode                              : zlib
    Codec ID                                 : S_VOBSUB
    Codec ID/Info                            : Picture based subtitle format used on DVDs
    Duration                                 : 1 h 58 min
    Bit rate                                 : 4 998 b/s
    Count of elements                        : 1017
    Stream size                              : 4.24 MiB (0%)
    Title                                    : Thai 1080p
    Language                                 : Thai
    Default                                  : No
    Forced                                   : No
    
    Text #18
    ID                                       : 35
    Format                                   : PGS
    Muxing mode                              : zlib
    Codec ID                                 : S_HDMV/PGS
    Codec ID/Info                            : Picture based subtitle format used on BDs/HD-DVDs
    Duration                                 : 1 h 58 min
    Bit rate                                 : 22.4 kb/s
    Count of elements                        : 2036
    Stream size                              : 19.0 MiB (0%)
    Title                                    : Thai PGS Yellow
    Language                                 : Thai
    Default                                  : No
    Forced                                   : No
    
    Text #19
    ID                                       : 36
    Format                                   : VobSub
    Muxing mode                              : zlib
    Codec ID                                 : S_VOBSUB
    Codec ID/Info                            : Picture based subtitle format used on DVDs
    Duration                                 : 1 h 58 min
    Bit rate                                 : 4 998 b/s
    Count of elements                        : 1017
    Stream size                              : 4.24 MiB (0%)
    Title                                    : Thai 1080p Yellow
    Language                                 : Thai
    Default                                  : No
    Forced                                   : No
    
    Menu
    00:00:00.000                             : en:Chapter 01
    00:06:47.907                             : en:Chapter 02
    00:09:11.676                             : en:Chapter 03
    00:14:45.551                             : en:Chapter 04
    00:19:27.833                             : en:Chapter 05
    00:23:10.555                             : en:Chapter 06
    00:33:51.904                             : en:Chapter 07
    00:39:10.264                             : en:Chapter 08
    00:42:19.245                             : en:Chapter 09
    00:48:31.992                             : en:Chapter 10
    00:52:44.619                             : en:Chapter 11
    00:57:15.056                             : en:Chapter 12
    00:59:25.895                             : en:Chapter 13
    01:05:47.568                             : en:Chapter 14
    01:09:31.750                             : en:Chapter 15
    01:19:06.867                             : en:Chapter 16
    01:22:48.546                             : en:Chapter 17
    01:29:09.218                             : en:Chapter 18
    01:35:00.403                             : en:Chapter 19
    01:44:26.510                             : en:Chapter 20
    01:51:06.993                             : en:Chapter 21





    Download: cornfile
    http://cornfile.com/k4a8zln4vinn
    Download: mekafile
    http://www.mekafile.com/dl.php?f=WN6eb2c41nPu

  2. #2
    Senior Member
    สมัครเมื่อ
    Jun 2014
    โพสต์
    2,638
    Thanks
    0
    Thanked 0 Times in 0 Posts
    ขอบคุณครับ

+ ตอบกลับกระทู้

ข้อมูลกระทู้

Users Browsing this Thread

ในขณะนี้มี 1 ท่านดูกระทู้อยู่. (0 สมาชิกและ 1 ผู้เยี่ยมชม)

     

กฎการโพสต์ข้อความ

  • ท่าน ไม่สามารถ ตั้งกระทู้ใหม่ได้
  • ท่าน ไม่สามารถ ตอบกระทู้ได้
  • ท่าน ไม่สามารถ แนบไฟล์ได้
  • ท่าน ไม่สามารถ แก้ไขข้อความโพสต์ได้
  • BB code สถานะ เปิด
  • Smilies สถานะ เปิด
  • [IMG] สถานะ เปิด
  • HTML สถานะ ปิด