+ ตอบกลับกระทู้
สรุปผลการค้นหา 1 ถึง 2 จากทั้งหมด 2
  1. #1
    Administrators รูปส่วนตัว Duckload.us
    สมัครเมื่อ
    Dec 2010
    โพสต์
    123,776
    Thanks
    7
    Thanked 128,790 Times in 57,297 Posts

    Lightbulb [ญี่ปุ่น]-Kidou Shinseiki Gundam X Ep.01-05 BDRip 1440x1080 พากย์ ญี่ปุ่น-ไทย ซับไทย -Encode.H.264.อื่น ๆ. [rip from Master]-[Soundtrack บรรยายไทย]



    15 ปีก่อน ได้เกิดสงครามระหว่างโคโลนี่และสหพันธ์โลกขึ้น โคโลนี่ได้ใช้ประชาชนของโลกเป็นตัวประกัน โดยการขู่ว่าถ้าสหพันธรัฐไม่ยอมแพ้ จะทำให้โคโลนี่ตกลงสู่โลกเพื่อทำลายล้างโลก ทางสหพันธ์โลกจึงได้ส่งโมบิลสูทออกมาทำลายล้างเหล่าโ คโลนี่ แต่ก็มิอาจหยุดยั้งการตกของโคโลนี่ได้ ทำให้โลกอยู่ในสภาวะล่มสลายมาถึง 15 ปี

    หลังจากสงครามจบลงด้วยความพ่ายแพ้ของทั้ง 2 ฝ่ายเป็นเวลา 15 ปี การ์รอด รัน เด็กหนุ่มวัย 15 ปี ได้รับการว่าจ้างให้ไปพาตัวทีฟ่าออกมาจากยานฟรีเด็น การ์รอดรักทีฟ่าทันทีที่แรกเห็น และพาเธอออกมาจากยานดังกล่าว แต่เพราะอาการหวาดกลัวของทีฟ่าที่มีต่อผู้ว่าจ้าง ทำให้การ์รอดเปลี่ยนเป้าหมายเป็นพาทีฟ่าหนีไป จนเขาได้พบกับอาวุธที่หลงเหลือจากสงครามเมื่อ 15 ปีก่อน GX-9900 กันดั้มเอ็กซ์ เข้า...


    พากย์ ญี่ปุ่น - ไทย
    ซับไตเติ้ล ไทย





    General
    Unique ID : 327189063983576544779061481039890319183 (0xF6265253147A9C8F064016D66061874F)
    Complete name : D:[NAOKI-Raws] 機 動 新 世 紀 ガ ン ダ ム X BD-BOX (BDRip x264 DTS-HDMA Chap)New FileKidou Shinseiki Gundam X 01-05(PakFron) Kidou Shinseiki Gundam X Ep.01 (BDRip x264 DTS-HDMA× 2 Chap FLAC).mkv
    Format : Matroska
    Format version : Version 4
    File size : 1.43 GiB
    Duration : 23 min 58 s
    Overall bit rate mode : Variable
    Overall bit rate : 8 543 kb/s
    Encoded date : UTC 2018-12-27 05:48:35
    Writing application : mkvmerge v29.0.0 ('Like It Or Not') 64-bit
    Writing library : libebml v1.3.6 + libmatroska v1.4.9

    Video
    ID : 1
    Format : AVC
    Format/Info : Advanced Video Codec
    Format profile : [email protected]
    Format settings : CABAC / 6 Ref Frames
    Format settings, CABAC : Yes
    Format settings, RefFrames : 6 frames
    Codec ID : V_MPEG4/ISO/AVC
    Duration : 23 min 58 s
    Bit rate : 4 459 kb/s
    Width : 1 440 pixels
    Height : 1 080 pixels
    Display aspect ratio : 4:3
    Frame rate mode : Constant
    Frame rate : 23.976 (24000/1001) FPS
    Color space : YUV
    Chroma subsampling : 4:2:0
    Bit depth : 8 bits
    Scan type : Progressive
    Bits/(Pixel*Frame) : 0.120
    Stream size : 765 MiB (52%)
    Writing library : x264 core 148 r2744kMod b97ae06
    Encoding settings : cabac=1 / ref=6 / deblock=0:1:1 / analyse=0x3:0x133 / me=hex / subme=9 / psy=1 / fade_compensate=0.00 / psy_rd=0.40:0.00 / mixed_ref=1 / me_range=16 / chroma_me=1 / trellis=1 / 8x8dct=1 / cqm=0 / deadzone=21,11 / fast_pskip=0 / chroma_qp_offset=-2 / threads=12 / lookahead_threads=1 / sliced_threads=0 / nr=0 / decimate=1 / interlaced=0 / bluray_compat=0 / constrained_intra=0 / bframes=3 / b_pyramid=2 / b_adapt=2 / b_bias=0 / direct=3 / weightb=1 / open_gop=0 / weightp=2 / keyint=250 / keyint_min=23 / scenecut=40 / intra_refresh=0 / rc_lookahead=50 / rc=crf / mbtree=1 / crf=16.0000 / qcomp=0.60 / qpmin=0 / qpmax=69 / qpstep=4 / ip_ratio=1.40 / aq=2:1.40
    Default : Yes
    Forced : No
    Color range : Limited
    Color primaries : BT.601 NTSC
    Transfer characteristics : BT.601
    Matrix coefficients : BT.601

    Audio #1
    ID : 2
    Format : DTS XLL
    Format/Info : Digital Theater Systems
    Commercial name : DTS-HD Master Audio
    Codec ID : A_DTS
    Duration : 23 min 58 s
    Bit rate mode : Variable
    Bit rate : 1 914 kb/s
    Channel(s) : 2 channels
    Channel layout : L R
    Sampling rate : 48.0 kHz
    Frame rate : 93.750 FPS (512 SPF)
    Bit depth : 24 bits
    Compression mode : Lossless
    Stream size : 328 MiB (22%)
    Title : 1. Main Audio / DTS-HDMA 24bit 2ch
    Language : Japanese
    Default : Yes
    Forced : No

    Audio #2
    ID : 3
    Format : DTS XLL
    Format/Info : Digital Theater Systems
    Commercial name : DTS-HD Master Audio
    Codec ID : A_DTS
    Duration : 23 min 58 s
    Bit rate mode : Variable
    Bit rate : 1 068 kb/s
    Channel(s) : 2 channels
    Channel layout : L R
    Sampling rate : 48.0 kHz
    Frame rate : 93.750 FPS (512 SPF)
    Bit depth : 16 bits
    Compression mode : Lossless
    Stream size : 183 MiB (13%)
    Title : 2. Audio Commentary / DTS-HDMA 16bit 2ch
    Language : Japanese
    Default : No
    Forced : No

    Audio #3
    ID : 5
    Format : FLAC
    Format/Info : Free Lossless Audio Codec
    Codec ID : A_FLAC
    Duration : 23 min 58 s
    Bit rate mode : Variable
    Bit rate : 1 095 kb/s
    Channel(s) : 2 channels
    Channel layout : L R
    Sampling rate : 96.0 kHz
    Frame rate : 23.438 FPS (4096 SPF)
    Bit depth : 24 bits
    Compression mode : Lossless
    Stream size : 188 MiB (13%)
    Writing library : libFLAC 20080709 (UTC 2008-07-09)
    Language : Thai
    Default : No
    Forced : No

    Text
    ID : 4
    Format : VobSub
    Muxing mode : zlib
    Codec ID : S_VOBSUB
    Codec ID/Info : Picture based subtitle format used on DVDs
    Duration : 23 min 46 s
    Bit rate : 2 847 b/s
    Count of elements : 263
    Stream size : 496 KiB (0%)
    Language : Thai
    Default : Yes
    Forced : No

    Menu
    00:00:00.000 : ja:Chapter 01
    00:02:15.218 : ja:Chapter 02
    00:03:33.004 : ja:Chapter 03
    00:11:03.746 : ja:Chapter 04
    00:22:03.239 : ja:Chapter 05
    00:22:44.446 : ja:Chapter 06



    1
    http://www.filecondo.com/dl.php?f=P783b41IRr2X
    2
    http://www.filecondo.com/dl.php?f=z809e61IRr3V
    3
    http://www.filecondo.com/dl.php?f=Sd99eb1IRr4S
    4
    http://www.filecondo.com/dl.php?f=i1b0291IRr5Q
    5
    http://www.filecondo.com/dl.php?f=x138151IRr6O

  2. #2
    Senior Member
    สมัครเมื่อ
    Jul 2013
    โพสต์
    1,784
    Thanks
    0
    Thanked 0 Times in 0 Posts
    ขอบคุณครับ

+ ตอบกลับกระทู้

ข้อมูลกระทู้

Users Browsing this Thread

ในขณะนี้มี 1 ท่านดูกระทู้อยู่. (0 สมาชิกและ 1 ผู้เยี่ยมชม)

     

กฎการโพสต์ข้อความ

  • ท่าน ไม่สามารถ ตั้งกระทู้ใหม่ได้
  • ท่าน ไม่สามารถ ตอบกระทู้ได้
  • ท่าน ไม่สามารถ แนบไฟล์ได้
  • ท่าน ไม่สามารถ แก้ไขข้อความโพสต์ได้
  • BB code สถานะ เปิด
  • Smilies สถานะ เปิด
  • [IMG] สถานะ เปิด
  • HTML สถานะ ปิด