+ ตอบกลับกระทู้
สรุปผลการค้นหา 1 ถึง 6 จากทั้งหมด 6
  1. #1
    Administrators รูปส่วนตัว Duckload.us
    สมัครเมื่อ
    Dec 2010
    โพสต์
    111,064
    Thanks
    7
    Thanked 116,399 Times in 53,059 Posts

    Question (จีน.ใหม่.ไทยมาสเตอร์)-JADE DYNASTY (2019) กระบี่เทพสังหาร-[HDRip.1080p][ Sound:Chi/Thai AC3 2.0:Master][ H-SUB Chi/S-SUB Eng]



    ภาพยนตร์ฟอร์มยักษ์ดัดแปลงจากนิยายขายดีจากจีน“จูเซี ยน กระบี่เทพสังหาร” หรือ Jade Dynasty หรืออีกชื่อ “The Attack of Heaven” นวนิยายชื่อดัง ที่เขียนโดย “เสี่ยวติง” (Xiao Ding) มียอดขายบนอินเตอร์เน็ตอันดับหนึ่ง ในปี 2005 และมียอดขายติด TOP5 ในปี2006 ก่อนจะถูกนำมาสร้างเป็นซีรีส์ และเกมส์ออนไลน์ จนล่าสุดกับฉบับภาพยนตร์ที่ Golden A Entertainmnet ได้นำเข้ามาฉายในประเทศไทย

    เรื่องราวของเด็กชายกำพร้าที่รอดตายจากโศกนาฏกรรมจาก หมู่บ้านของเขา แม้พ่อแม่จะถูกฆ่าตายหมด แต่เขาได้รับความช่วยเหลือและได้พบกับอาจารย์สอนและฝ ึกฝนวิชาจากสำนักชิงหยุน เมื่อความลับของการตายของพ่อแม่เขาปรากฏ เขาจึงออกตามล่าศัตรูเพื่อแก้แค้นให้กับพ่อแม่ของเขา ที่จากไป

    โดยภาพยนตร์ Jade Dynasty กระบี่เทพสังหาร เปิดตัวด้วยรายได้ถล่มบ็อกออฟฟิตในประเทศจีนไปกว่า 300 ล้านหยวนภายในสัปดาห์แรก นำแสดงโดยพระเอกสุดฮอตติดชาร์ตยอดนิยมอันดับหนึ่งทุก โพล ‘เซียวจ้าน’ ที่มีแฟนคลับมากมาย เจ้าของสถิติบัตรแฟนมีทขายหมดในหนึ่งนาที และสาวๆอย่าง หลี่ซิ่น, เมิ่งเหม่ยฉี และ ถังยี่ซิน รวมทั้งดารามากมายอีกคับคั่ง

    Format : Matroska
    Format version : Version 4
    File size : 3.59 GiB
    Duration : 1 h 40 min
    Overall bit rate : 5 089 kb/s
    Movie name : Jade Dynasty 2019 HDRip 1080p x264 Mandarin_©GOLD CUP™
    Encoded date : UTC 2020-01-17 03:00:31
    Writing application : mkvmerge v42.0.0 ('Overtime') 64-bit
    Writing library : libebml v1.3.10 + libmatroska v1.5.2
    Cover : Yes
    Attachments : cover.jpg

    Video
    ID : 1
    Format : AVC
    Format/Info : Advanced Video Codec
    Format profile : [email protected]
    Format settings : CABAC / 1 Ref Frames
    Format settings, CABAC : Yes
    Format settings, Reference frames : 1 frame
    Format settings, GOP : M=1, N=25
    Codec ID : V_MPEG4/ISO/AVC
    Duration : 1 h 40 min
    Bit rate mode : Constant
    Bit rate : 3 800 kb/s
    Width : 1 920 pixels
    Height : 800 pixels
    Display aspect ratio : 2.40:1
    Frame rate mode : Constant
    Frame rate : 29.970 (30000/1001) FPS
    Color space : YUV
    Chroma subsampling : 4:2:0
    Bit depth : 8 bits
    Scan type : Progressive
    Bits/(Pixel*Frame) : 0.083
    Stream size : 2.68 GiB (75%)
    Title : Jade Dynasty 2019 HDRip 1080p x264 Mandarin_©GOLD CUP™
    Language : Chinese
    Default : Yes
    Forced : No

    Audio #1
    ID : 2
    Format : AC-3
    Format/Info : Audio Coding 3
    Commercial name : Dolby Digital
    Codec ID : A_AC3
    Duration : 1 h 40 min
    Bit rate mode : Constant
    Bit rate : 640 kb/s
    Channel(s) : 2 channels
    Channel layout : L R
    Sampling rate : 44.1 kHz
    Frame rate : 28.711 FPS (1536 SPF)
    Bit depth : 16 bits
    Compression mode : Lossy
    Stream size : 462 MiB (13%)
    Title : 2.0 AC3 TH 640k 461m_©GOLD CUP™
    Language : Thai
    Service kind : Complete Main
    Default : Yes
    Forced : No

    Audio #2
    ID : 3
    Format : AC-3
    Format/Info : Audio Coding 3
    Commercial name : Dolby Digital
    Codec ID : A_AC3
    Duration : 1 h 40 min
    Bit rate mode : Constant
    Bit rate : 640 kb/s
    Channel(s) : 2 channels
    Channel layout : L R
    Sampling rate : 44.1 kHz
    Frame rate : 28.711 FPS (1536 SPF)
    Bit depth : 16 bits
    Compression mode : Lossy
    Stream size : 462 MiB (13%)
    Title : 2.0 AC3 Chi 640k 461m_©GOLD CUP™
    Language : Chinese
    Service kind : Complete Main
    Default : No
    Forced : No

    Text
    ID : 4
    Format : PGS
    Muxing mode : zlib
    Codec ID : S_HDMV/PGS
    Codec ID/Info : Picture based subtitle format used on BDs/HD-DVDs
    Duration : 1 h 36 min
    Bit rate : 17.6 kb/s
    Count of elements : 2556
    Stream size : 12.2 MiB (0%)
    Title : EN.PGS.white.85-10-13_©GOLD CUP™
    Language : English
    Default : Yes
    Forced : No





    Download: cornfile
    http://cornfile.com/21hbnuij9t2h
    Download: mekafile
    http://www.mekafile.com/dl.php?f=Zn1b6dc48xSI

  2. The Following 3 Users Say Thank You to Duckload.us For This Useful Post:

    apichartdear (01-18-2020), gaszolineskywalker (02-02-2020), noi54 (01-18-2020)

  3. #2
    Senior Member
    สมัครเมื่อ
    Dec 2013
    โพสต์
    1,974
    Thanks
    3,895
    Thanked 0 Times in 0 Posts
    ขอบคุณครับ...

  4. #3
    Senior Member
    สมัครเมื่อ
    Jun 2014
    โพสต์
    2,511
    Thanks
    0
    Thanked 0 Times in 0 Posts
    ขอบคุณครับ

  5. #4
    Senior Member
    สมัครเมื่อ
    Jul 2012
    โพสต์
    6,468
    Thanks
    0
    Thanked 0 Times in 0 Posts
    ขอบคุณมากจ้า

  6. #5
    Senior Member
    สมัครเมื่อ
    Jul 2014
    โพสต์
    185
    Thanks
    5
    Thanked 0 Times in 0 Posts
    ขอบคุณครับ

  7. #6
    Senior Member
    สมัครเมื่อ
    Oct 2012
    โพสต์
    878
    Thanks
    1,813
    Thanked 0 Times in 0 Posts
    ขอบคุณครับ

+ ตอบกลับกระทู้

ข้อมูลกระทู้

Users Browsing this Thread

ในขณะนี้มี 1 ท่านดูกระทู้อยู่. (0 สมาชิกและ 1 ผู้เยี่ยมชม)

     

กฎการโพสต์ข้อความ

  • ท่าน ไม่สามารถ ตั้งกระทู้ใหม่ได้
  • ท่าน ไม่สามารถ ตอบกระทู้ได้
  • ท่าน ไม่สามารถ แนบไฟล์ได้
  • ท่าน ไม่สามารถ แก้ไขข้อความโพสต์ได้
  • BB code สถานะ เปิด
  • Smilies สถานะ เปิด
  • [IMG] สถานะ เปิด
  • HTML สถานะ ปิด