+ ตอบกลับกระทู้
สรุปผลการค้นหา 1 ถึง 3 จากทั้งหมด 3
  1. #1
    Administrators รูปส่วนตัว Duckload.us
    สมัครเมื่อ
    Dec 2010
    โพสต์
    111,417
    Thanks
    7
    Thanked 116,834 Times in 53,179 Posts

    Question [ฝรั่ง]-[* ใหม่ร้อนๆ ภาพชัดบลูเรย์+เสียงไทยโรงครบ! *] Countdown (2019) เคาท์ดาวน์ตาย [* 1080p.BluRay.x264.AC3.THR2.0 *] [พากย์ไทยโรง 2.0 + เสียงอังกฤษ 5.1] [ไฟล์เล็กกระทัดรัด!!]



    เรื่องย่อ : เรื่องราวเกี่ยวกับเทคโนโลยีหลอน ๆ เมื่อนางพยาบาลสาวดาวน์โหลดแอปพลิเคชันที่สามารถพยาก รณ์เวลาตายได้ และมันแจ้งว่าเธอจะมีชีวิตอยู่ได้อีกแค่ 3 วันเท่านั้น เธอต้องพยายามหาวิธีเอาตัวรอดก่อนที่จะไม่หลงเหลือเว ลาแม้แต่วินาทีเดียว!!


    Video
    ID : 1
    Format : AVC
    Format/Info : Advanced Video Codec
    Format profile : [email protected]
    Format settings, CABAC : Yes
    Format settings, RefFrames : 4 frames
    Codec ID : V_MPEG4/ISO/AVC
    Duration : 1 h 30 min
    Bit rate : 4 500 kb/s
    Width : 1 920 pixels
    Height : 804 pixels
    Display aspect ratio : 2.40:1
    Frame rate mode : Constant
    Frame rate : 23.976 (24000/1001) FPS
    Color space : YUV
    Chroma subsampling : 4:2:0
    Bit depth : 8 bits
    Scan type : Progressive
    Bits/(Pixel*Frame) : 0.122
    Stream size : 2.85 GiB (84%)
    Title : Countdown.2019.1080p.BluRay.x264.AC3.THR2.0_HeRMin eZ
    Writing library : x264 core 155 r2901 7d0ff22
    Encoding settings : cabac=1 / ref=2 / deblock=1:0:0 / analyse=0x1:0x111 / me=hex / subme=6 / psy=1 / psy_rd=1.00:0.00 / mixed_ref=1 / me_range=16 / chroma_me=1 / trellis=1 / 8x8dct=0 / cqm=0 / deadzone=21,11 / fast_pskip=1 / chroma_qp_offset=-2 / threads=6 / lookahead_threads=1 / sliced_threads=0 / nr=0 / decimate=1 / interlaced=0 / bluray_compat=0 / constrained_intra=0 / bframes=3 / b_pyramid=2 / b_adapt=1 / b_bias=0 / direct=1 / weightb=1 / open_gop=0 / weightp=1 / keyint=240 / keyint_min=24 / scenecut=40 / intra_refresh=0 / rc_lookahead=30 / rc=2pass / mbtree=1 / bitrate=4500 / ratetol=1.0 / qcomp=0.60 / qpmin=0 / qpmax=69 / qpstep=4 / cplxblur=20.0 / qblur=0.5 / vbv_maxrate=20000 / vbv_bufsize=25000 / nal_hrd=none / filler=0 / ip_ratio=1.40 / aq=1:1.00
    Default : Yes
    Forced : No
    Color range : Limited
    Color primaries : BT.709
    Transfer characteristics : BT.709
    Matrix coefficients : BT.709

    Audio #1
    ID : 2
    Format : AC-3
    Format/Info : Audio Coding 3
    Format settings, Endianness : Big
    Codec ID : A_AC3
    Duration : 1 h 30 min
    Bit rate mode : Constant
    Bit rate : 192 kb/s
    Channel(s) : 2 channels
    Channel positions : Front: L R
    Sampling rate : 48.0 kHz
    Frame rate : 31.250 FPS (1536 SPF)
    Bit depth : 16 bits
    Compression mode : Lossy
    Delay relative to video : -5 ms
    Stream size : 125 MiB (4%)
    Title : Thai Rong 2.0 Modified By HeRMineZ @192 Kbps
    Language : Thai
    Service kind : Complete Main
    Default : Yes
    Forced : No

    Audio #2
    ID : 3
    Format : AC-3
    Format/Info : Audio Coding 3
    Format settings, Endianness : Big
    Codec ID : A_AC3
    Duration : 1 h 30 min
    Bit rate mode : Constant
    Bit rate : 640 kb/s
    Channel(s) : 6 channels
    Channel positions : Front: L C R, Side: L R, LFE
    Sampling rate : 48.0 kHz
    Frame rate : 31.250 FPS (1536 SPF)
    Bit depth : 16 bits
    Compression mode : Lossy
    Delay relative to video : -5 ms
    Stream size : 415 MiB (12%)
    Title : English 5.1 @640 Kbps
    Language : English
    Service kind : Complete Main
    Default : No
    Forced : No

    Menu
    00:00:00.000 : en:Chapter 1
    00:03:14.695 : en:Chapter 2
    00:08:07.028 : en:Chapter 3
    00:14:14.937 : en:Chapter 4
    00:18:02.999 : en:Chapter 5
    00:24:23.462 : en:Chapter 6
    00:31:47.989 : en:Chapter 7
    00:35:37.552 : en:Chapter 8
    00:39:21.943 : en:Chapter 9
    00:44:15.736 : en:Chapter 10
    00:47:26.177 : en:Chapter 11
    00:50:52.925 : en:Chapter 12
    00:55:49.304 : en:Chapter 13
    00:59:32.027 : en:Chapter 14
    01:07:01.059 : en:Chapter 15
    01:09:26.496 : en:Chapter 16
    01:15:02.456 : en:Chapter 17
    01:20:53.891 : en:Chapter 18
    01:22:54.261 : en:Chapter 19
    01:24:05.165 : en:Chapter 20














    Download: cornfile
    http://cornfile.com/m7yzbk8z8y4g
    Download: mekafile
    http://www.mekafile.com/dl.php?f=bkb0e5c48u3a

  2. The Following User Says Thank You to Duckload.us For This Useful Post:

    Tellmon (01-19-2020)

  3. #2
    Senior Member
    สมัครเมื่อ
    Dec 2013
    โพสต์
    2,003
    Thanks
    3,919
    Thanked 0 Times in 0 Posts
    ขอบคุณครับ...

  4. #3
    Senior Member
    สมัครเมื่อ
    Jun 2014
    โพสต์
    2,638
    Thanks
    0
    Thanked 0 Times in 0 Posts
    ขอบคุณครับ

+ ตอบกลับกระทู้

ข้อมูลกระทู้

Users Browsing this Thread

ในขณะนี้มี 1 ท่านดูกระทู้อยู่. (0 สมาชิกและ 1 ผู้เยี่ยมชม)

     

กฎการโพสต์ข้อความ

  • ท่าน ไม่สามารถ ตั้งกระทู้ใหม่ได้
  • ท่าน ไม่สามารถ ตอบกระทู้ได้
  • ท่าน ไม่สามารถ แนบไฟล์ได้
  • ท่าน ไม่สามารถ แก้ไขข้อความโพสต์ได้
  • BB code สถานะ เปิด
  • Smilies สถานะ เปิด
  • [IMG] สถานะ เปิด
  • HTML สถานะ ปิด