+ ตอบกลับกระทู้
สรุปผลการค้นหา 1 ถึง 2 จากทั้งหมด 2
  1. #1
    Administrators รูปส่วนตัว Duckload.us
    สมัครเมื่อ
    Dec 2010
    โพสต์
    111,276
    Thanks
    7
    Thanked 116,747 Times in 53,150 Posts

    Question (V1)-UNDERWATER (2020) มฤตยูใต้สมุทร-[720p][Sound EnR AAC 2.0/Thr AC3 2.0][SUB:NO]



    เมื่อบางสิ่งถูกปลุกขึ้นจากการหลับใหลใต้มหาสมุทร พวกเขาจะเอาชีวิตรอดจากมันได้หรือไม่? พบคริสเต็น สจวร์ท กลับมารับบทนำในหนังบล็อคบัสเตอร์อีกครั้งใน Underwater มฤตยูใต้สมุทร

    Format : Matroska
    Format version : Version 4
    File size : 2.29 GiB
    Duration : 1 h 30 min
    Overall bit rate : 3 626 kb/s
    Movie name : Underwater (2020) 720p.Thr._©GOLD CUP™
    Video
    ID : 1
    Format : AVC
    Format/Info : Advanced Video Codec
    Format profile : [email protected]
    Format settings : CABAC / 1 Ref Frames
    Format settings, CABAC : Yes
    Format settings, Reference : 1 frame
    Format settings, GOP : M=1, N=25
    Codec ID : V_MPEG4/ISO/AVC
    Duration : 1 h 30 min
    Bit rate mode : Constant
    Bit rate : 3 253 kb/s
    Width : 1 280 pixels
    Height : 540 pixels
    Display aspect ratio : 2.40:1
    Frame rate mode : Constant
    Frame rate : 29.970 (30000/1001) FPS
    Color space : YUV
    Chroma subsampling : 4:2:0
    Bit depth : 8 bits
    Scan type : Progressive
    Bits/(Pixel*Frame) : 0.157
    Stream size : 2.05 GiB (90%)
    Title : Underwater (2020) 720p.Thr._©GOLD CUP™
    Language : English
    Default : Yes
    Forced : No

    Audio #1
    ID : 2
    Format : AC-3
    Format/Info : Audio Coding 3
    Commercial name : Dolby Digital
    Codec ID : A_AC3
    Duration : 1 h 30 min
    Bit rate mode : Constant
    Bit rate : 192 kb/s
    Channel(s) : 2 channels
    Channel layout : L R
    Sampling rate : 44.1 kHz
    Frame rate : 28.711 FPS (1536 SPF)
    Compression mode : Lossy
    Stream size : 124 MiB (5%)
    Title : 2.0 AC3 Thr 192k 124m._©GOLD CUP™
    Language : Thai
    Service kind : Complete Main
    Default : Yes
    Forced : No

    Audio #2
    ID : 3
    Format : AAC LC
    Format/Info : Advanced Audio Codec Low Complexity
    Codec ID : A_AAC-2
    Duration : 1 h 30 min
    Bit rate : 182 kb/s
    Channel(s) : 2 channels
    Channel layout : L R
    Sampling rate : 44.1 kHz
    Frame rate : 43.066 FPS (1024 SPF)
    Compression mode : Lossy
    Stream size : 118 MiB (5%)
    Title : EN 2.0 AAC 192k 118m._©GOLD CUP™
    Language : English
    Default : No
    Forced : No





    Download: cornfile
    http://cornfile.com/s87otvww4fjk
    Download: mekafile
    http://www.mekafile.com/dl.php?f=jJa96ec4g5nz

  2. #2
    Senior Member
    สมัครเมื่อ
    Jun 2014
    โพสต์
    2,605
    Thanks
    0
    Thanked 0 Times in 0 Posts
    ขอบคุณครับ

+ ตอบกลับกระทู้

ข้อมูลกระทู้

Users Browsing this Thread

ในขณะนี้มี 1 ท่านดูกระทู้อยู่. (0 สมาชิกและ 1 ผู้เยี่ยมชม)

     

กฎการโพสต์ข้อความ

  • ท่าน ไม่สามารถ ตั้งกระทู้ใหม่ได้
  • ท่าน ไม่สามารถ ตอบกระทู้ได้
  • ท่าน ไม่สามารถ แนบไฟล์ได้
  • ท่าน ไม่สามารถ แก้ไขข้อความโพสต์ได้
  • BB code สถานะ เปิด
  • Smilies สถานะ เปิด
  • [IMG] สถานะ เปิด
  • HTML สถานะ ปิด