+ ตอบกลับกระทู้
สรุปผลการค้นหา 1 ถึง 2 จากทั้งหมด 2
  1. #1
    Administrators รูปส่วนตัว Duckload.us
    สมัครเมื่อ
    Dec 2010
    โพสต์
    111,064
    Thanks
    7
    Thanked 116,399 Times in 53,059 Posts

    Question (ฝรั่ง.ใหม่.พากย์ไทยมาสเตอร์)-Critters Attack! กลิ้ง..งับ..งับ บุกโลก [BR.1080p][Sound:Eng AC3 5.1/Thai AC3 2.0:Master][SUB:Eng.PGS]



    เรื่องราวของเดรีย (ทาเชียนา วอร์ชิงตัน) หญิงสาววัย 20 ปี ที่รับหน้างานเป็นพี่เลี้ยงเด็กให้บรรดาลูกๆ ของศาสตราจารย์คนหนึ่ง เดรียได้พาเด็กๆ กับน้องชายของเธอไปเดินป่าในขณะเดียวกับที่เจ้าเอเลี ่ยนขนปุกปุยกลับมาบุกโลกอีกครั้ง และไล่งับกินทุกอย่างที่ขวางหน้า ขณะเดียวกัน กลุ่มของเดรียก็บังเอิญได้พบกับเจ้าขนปุยตัวเมียขนเผ ือกที่ถูกขับไล่ออกจากกลุ่ม แต่มันจะใสซื่อไร้เดียงสาเหมือนหน้าของมันหรือเปล่าน ี่สิ…!!!

    Format : Matroska
    Format version : Version 4
    File size : 3.34 GiB
    Duration : 1 h 29 min
    Overall bit rate : 5 358 kb/s
    Movie name : Critters.Attack.2019.1080p.BluRay.H264._©GOLD CUP™

    Video
    ID : 1
    Format : AVC
    Format/Info : Advanced Video Codec
    Format profile : [email protected]
    Format settings : CABAC / 1 Ref Frames
    Format settings, CABAC : Yes
    Format settings, Reference : 1 frame
    Format settings, GOP : M=1, N=25
    Codec ID : V_MPEG4/ISO/AVC
    Duration : 1 h 29 min
    Bit rate mode : Constant
    Bit rate : 4 500 kb/s
    Width : 1 920 pixels
    Height : 1 080 pixels
    Display aspect ratio : 16:9
    Frame rate mode : Constant
    Frame rate : 29.970 (30000/1001) FPS
    Color space : YUV
    Chroma subsampling : 4:2:0
    Bit depth : 8 bits
    Scan type : Progressive
    Bits/(Pixel*Frame) : 0.072
    Stream size : 2.80 GiB (84%)
    Title : Critters.Attack.2019.1080p.BluRay.H264._©GOLD CUP™
    Language : English
    Default : Yes
    Forced : No

    Audio #1
    ID : 2
    Format : AC-3
    Format/Info : Audio Coding 3
    Commercial name : Dolby Digital
    Codec ID : A_AC3
    Duration : 1 h 29 min
    Bit rate mode : Constant
    Bit rate : 192 kb/s
    Channel(s) : 2 channels
    Channel layout : L R
    Sampling rate : 44.1 kHz
    Frame rate : 28.711 FPS (1536 SPF)
    Compression mode : Lossy
    Stream size : 123 MiB (4%)
    Title : 2.0 AC3 TH 192k 122m_©GOLD CUP™
    Language : Thai
    Service kind : Complete Main
    Default : Yes
    Forced : No

    Audio #2
    ID : 3
    Format : AC-3
    Format/Info : Audio Coding 3
    Commercial name : Dolby Digital
    Codec ID : A_AC3
    Duration : 1 h 29 min
    Bit rate mode : Constant
    Bit rate : 640 kb/s
    Channel(s) : 6 channels
    Channel layout : L R C LFE Ls Rs
    Sampling rate : 44.1 kHz
    Frame rate : 28.711 FPS (1536 SPF)
    Compression mode : Lossy
    Stream size : 409 MiB (12%)
    Title : 5.1 AC3 EN 940k 408m_©GOLD CUP™
    Language : English
    Service kind : Complete Main
    Default : No
    Forced : No

    Text #1
    ID : 4
    Format : PGS
    Muxing mode : zlib
    Codec ID : S_HDMV/PGS
    Codec ID/Info : Picture based subtitle format used on BDs/HD-DVDs
    Duration : 1 h 25 min
    Bit rate : 21.9 kb/s
    Count of elements : 2002
    Stream size : 13.5 MiB (0%)
    Title : EN.PGS.white.95-70-10_©GOLD CUP™
    Language : English
    Default : Yes
    Forced : No

    Text #2
    ID : 5
    Format : PGS
    Muxing mode : zlib
    Codec ID : S_HDMV/PGS
    Codec ID/Info : Picture based subtitle format used on BDs/HD-DVDs
    Duration : 1 h 28 min
    Bit rate : 27.4 kb/s
    Count of elements : 2756
    Stream size : 17.4 MiB (1%)
    Title : En.SDH.PGS.yellow.95-70-10_©GOLD CUP™
    Language : English
    Default : No
    Forced : No





    Download: cornfile
    http://cornfile.com/hk4xlsasub9q
    Download: mekafile
    http://www.mekafile.com/dl.php?f=kK6849c4g6Hq

  2. The Following 5 Users Say Thank You to Duckload.us For This Useful Post:

    amorn wichian (01-20-2020), apichartdear (01-20-2020), korard (01-21-2020), smakha (01-22-2020), Tellmon (01-21-2020)

  3. #2
    Senior Member
    สมัครเมื่อ
    Jun 2014
    โพสต์
    2,511
    Thanks
    0
    Thanked 0 Times in 0 Posts
    ขอบคุณครับ

+ ตอบกลับกระทู้

ข้อมูลกระทู้

Users Browsing this Thread

ในขณะนี้มี 1 ท่านดูกระทู้อยู่. (0 สมาชิกและ 1 ผู้เยี่ยมชม)

     

กฎการโพสต์ข้อความ

  • ท่าน ไม่สามารถ ตั้งกระทู้ใหม่ได้
  • ท่าน ไม่สามารถ ตอบกระทู้ได้
  • ท่าน ไม่สามารถ แนบไฟล์ได้
  • ท่าน ไม่สามารถ แก้ไขข้อความโพสต์ได้
  • BB code สถานะ เปิด
  • Smilies สถานะ เปิด
  • [IMG] สถานะ เปิด
  • HTML สถานะ ปิด