+ ตอบกลับกระทู้
สรุปผลการค้นหา 1 ถึง 3 จากทั้งหมด 3
  1. #1
    Administrators รูปส่วนตัว Duckload.us
    สมัครเมื่อ
    Dec 2010
    โพสต์
    111,263
    Thanks
    7
    Thanked 116,712 Times in 53,142 Posts

    Question [ฝรั่ง]-Pirates of the Caribbean[2003]-The Curse of the Black Pearl [2160p][HDR] [Sound : EN DTS-HD 6.1/DTS 5.1 - TH DD 5.1] [Sub : EN - TH]-Remux.DTS-HD.2160p. [Master]-[พากย์ไทย บรรยายไทย]



    Code:
    Format                                   : Matroska
    Format version                           : Version 4
    File size                                : 20.2 GiB
    Duration                                 : 2 h 23 min
    Overall bit rate mode                    : Variable
    Overall bit rate                         : 20.1 Mb/s
    Movie name                               : Pirates of the Caribbean-The Curse of the Black Pearl (2003) 2160p HDR Disney
    Encoded date                             : UTC 2020-01-17 12:36:13
    Writing application                      : mkvmerge v42.0.0 ('Overtime') 64-bit
    Writing library                          : libebml v1.3.10 + libmatroska v1.5.2
    
    Video
    ID                                       : 1
    Format                                   : HEVC
    Format/Info                              : High Efficiency Video Coding
    Format profile                           : Main [email protected]@High
    Codec ID                                 : V_MPEGH/ISO/HEVC
    Duration                                 : 2 h 23 min
    Bit rate                                 : 14.7 Mb/s
    Width                                    : 3 840 pixels
    Height                                   : 1 636 pixels
    Display aspect ratio                     : 2.35:1
    Frame rate mode                          : Constant
    Frame rate                               : 23.976 (24000/1001) FPS
    Color space                              : YUV
    Chroma subsampling                       : 4:2:0
    Bit depth                                : 10 bits
    Bits/(Pixel*Frame)                       : 0.098
    Stream size                              : 14.7 GiB (73%)
    Title                                    : Pirates of the Caribbean-The Curse of the Black Pearl (2003) 2160p HDR Disney
    Writing library                          : x265 3.2+9-971180b100f8:[Windows][MSVC 1923][64 bit] 10bit
    Encoding settings                        : cpuid=1111039 / frame-threads=4 / numa-pools=28,0 / wpp / no-pmode / no-pme / no-psnr / no-ssim / log-level=2 / input-csp=1 / input-res=3840x1636 / interlace=0 / total-frames=0 / level-idc=51 / high-tier=1 / uhd-bd=0 / ref=5 / no-allow-non-conformance / repeat-headers / annexb / no-aud / no-hrd / info / hash=0 / no-temporal-layers / open-gop / min-keyint=23 / keyint=250 / gop-lookahead=0 / bframes=8 / b-adapt=2 / b-pyramid / bframe-bias=0 / rc-lookahead=40 / lookahead-slices=0 / scenecut=40 / radl=0 / no-splice / no-intra-refresh / ctu=64 / min-cu-size=8 / no-rect / no-amp / max-tu-size=32 / tu-inter-depth=3 / tu-intra-depth=3 / limit-tu=0 / rdoq-level=1 / dynamic-rd=0.00 / no-ssim-rd / signh-i-d-e / no-tskip / nr-intra=0 / nr-inter=0 / no-constrained-intra / strong-intra-smoothing / max-merge=5 / limit-refs=0 / no-limit-modes / me=3 / subme=4 / merange=57 / temporal-mvp / no-frame-dup / no-hme / weightp / weightb / no-analyze-src-pics / deblock=0:0 / no-sao / no-sao-non-deblock / rd=6 / selective-sao=0 / no-early-skip / rskip / no-fast-intra / no-tskip-fast / no-cu-lossless / b-intra / no-splitrd-skip / rdpenalty=0 / psy-rd=4.00 / psy-rdoq=8.00 / no-rd-refine / no-lossless / cbqpoffs=0 / crqpoffs=0 / rc=crf / crf=15.0 / qcomp=0.60 / qpstep=4 / stats-write=0 / stats-read=0 / vbv-maxrate=160000 / vbv-bufsize=160000 / vbv-init=0.9 / crf-max=0.0 / crf-min=0.0 / ipratio=1.40 / pbratio=1.30 / aq-mode=2 / aq-strength=1.00 / cutree / zone-count=0 / no-strict-cbr / qg-size=32 / no-rc-grain / qpmax=69 / qpmin=0 / no-const-vbv / sar=0 / overscan=0 / videoformat=5 / range=0 / colorprim=9 / transfer=16 / colormatrix=9 / chromaloc=0 / display-window=0 / cll=0,0 / min-luma=0 / max-luma=1023 / log2-max-poc-lsb=8 / vui-timing-info / vui-hrd-info / slices=1 / no-opt-qp-pps / no-opt-ref-list-length-pps / no-multi-pass-opt-rps / scenecut-bias=0.05 / no-opt-cu-delta-qp / no-aq-motion / hdr / hdr-opt / no-dhdr10-opt / no-idr-recovery-sei / analysis-reuse-level=5 / scale-factor=0 / refine-intra=0 / refine-inter=0 / refine-mv=1 / refine-ctu-distortion=0 / no-limit-sao / ctu-info=0 / no-lowpass-dct / refine-analysis-type=0 / copy-pic=1 / max-ausize-factor=1.0 / no-dynamic-refine / no-single-sei / no-hevc-aq / no-svt / no-field / qp-adaptation-range=1.00
    Default                                  : Yes
    Forced                                   : No
    Color range                              : Limited
    Color primaries                          : BT.2020
    Transfer characteristics                 : PQ
    Matrix coefficients                      : BT.2020 non-constant
    
    Audio #1
    ID                                       : 2
    Format                                   : DTS ES XLL
    Format/Info                              : Digital Theater Systems
    Commercial name                          : DTS-HD Master Audio
    Codec ID                                 : A_DTS
    Duration                                 : 2 h 23 min
    Bit rate mode                            : Variable
    Bit rate                                 : 4 053 kb/s
    Channel(s)                               : 6 channels
    Channel(s)_Original                      : 7 channels
    ChannelLayout_Original                   : C L R Ls Rs LFE Cs
    Sampling rate                            : 48.0 kHz
    Frame rate                               : 93.750 FPS (512 SPF)
    Bit depth                                : 24 bits
    Compression mode                         : Lossless
    Stream size                              : 4.07 GiB (20%)
    Title                                    : DTS (MA) / 2351 kbps / 48 KHz / 24-Bit / 5.1
    Language                                 : English
    Default                                  : No
    Forced                                   : No
    
    Audio #2
    ID                                       : 3
    Format                                   : AC-3
    Format/Info                              : Audio Coding 3
    Commercial name                          : Dolby Digital
    Codec ID                                 : A_AC3
    Duration                                 : 2 h 23 min
    Bit rate mode                            : Constant
    Bit rate                                 : 640 kb/s
    Channel(s)                               : 6 channels
    Channel layout                           : L R C LFE Ls Rs
    Sampling rate                            : 48.0 kHz
    Frame rate                               : 31.250 FPS (1536 SPF)
    Compression mode                         : Lossy
    Stream size                              : 655 MiB (3%)
    Title                                    : Thai AC3
    Language                                 : Thai
    Service kind                             : Complete Main
    Default                                  : Yes
    Forced                                   : No
    
    Audio #3
    ID                                       : 4
    Format                                   : DTS
    Format/Info                              : Digital Theater Systems
    Codec ID                                 : A_DTS
    Duration                                 : 2 h 23 min
    Bit rate mode                            : Constant
    Bit rate                                 : 755 kb/s
    Channel(s)                               : 6 channels
    Channel layout                           : C L R Ls Rs LFE
    Sampling rate                            : 48.0 kHz
    Frame rate                               : 93.750 FPS (512 SPF)
    Bit depth                                : 24 bits
    Compression mode                         : Lossy
    Stream size                              : 775 MiB (4%)
    Title                                    : Eng DTS
    Language                                 : English
    Default                                  : No
    Forced                                   : No
    
    Text #1
    ID                                       : 5
    Format                                   : VobSub
    Muxing mode                              : zlib
    Codec ID                                 : S_VOBSUB
    Codec ID/Info                            : Picture based subtitle format used on DVDs
    Duration                                 : 2 h 12 min
    Bit rate                                 : 1 800 b/s
    Count of elements                        : 1617
    Stream size                              : 1.71 MiB (0%)
    Title                                    : Eng 480p
    Language                                 : English
    Default                                  : No
    Forced                                   : No
    
    Text #2
    ID                                       : 6
    Format                                   : VobSub
    Muxing mode                              : zlib
    Codec ID                                 : S_VOBSUB
    Codec ID/Info                            : Picture based subtitle format used on DVDs
    Duration                                 : 2 h 14 min
    Bit rate                                 : 1 564 b/s
    Count of elements                        : 1571
    Stream size                              : 1.50 MiB (0%)
    Title                                    : Thai 480p
    Language                                 : Thai
    Default                                  : No
    Forced                                   : No
    
    Text #3
    ID                                       : 7
    Format                                   : VobSub
    Muxing mode                              : zlib
    Codec ID                                 : S_VOBSUB
    Codec ID/Info                            : Picture based subtitle format used on DVDs
    Duration                                 : 2 h 12 min
    Bit rate                                 : 6 942 b/s
    Count of elements                        : 1917
    Stream size                              : 6.59 MiB (0%)
    Language                                 : English
    Default                                  : Yes
    Forced                                   : No
    
    Text #4
    ID                                       : 8
    Format                                   : PGS
    Muxing mode                              : zlib
    Codec ID                                 : S_HDMV/PGS
    Codec ID/Info                            : Picture based subtitle format used on BDs/HD-DVDs
    Duration                                 : 2 h 14 min
    Bit rate                                 : 16.7 kb/s
    Count of elements                        : 3142
    Stream size                              : 16.0 MiB (0%)
    Title                                    : Thai PGS
    Language                                 : Thai
    Default                                  : No
    Forced                                   : No
    
    Text #5
    ID                                       : 9
    Format                                   : PGS
    Muxing mode                              : zlib
    Codec ID                                 : S_HDMV/PGS
    Codec ID/Info                            : Picture based subtitle format used on BDs/HD-DVDs
    Duration                                 : 2 h 12 min
    Bit rate                                 : 19.6 kb/s
    Count of elements                        : 3234
    Stream size                              : 18.6 MiB (0%)
    Title                                    : Eng PGS
    Language                                 : English
    Default                                  : No
    Forced                                   : No



    Download: cornfile
    http://cornfile.com/gpxlutt5cwlq
    Download: mekafile
    http://www.mekafile.com/dl.php?f=Rwdffdc4gdQN

  2. #2
    Senior Member
    สมัครเมื่อ
    Jun 2014
    โพสต์
    2,579
    Thanks
    0
    Thanked 0 Times in 0 Posts
    ขอบคุณครับ

  3. #3
    Senior Member
    สมัครเมื่อ
    Jun 2012
    โพสต์
    1,280
    Thanks
    0
    Thanked 1 Time in 1 Post
    ขอบคุณครับ

+ ตอบกลับกระทู้

ข้อมูลกระทู้

Users Browsing this Thread

ในขณะนี้มี 1 ท่านดูกระทู้อยู่. (0 สมาชิกและ 1 ผู้เยี่ยมชม)

     

กฎการโพสต์ข้อความ

  • ท่าน ไม่สามารถ ตั้งกระทู้ใหม่ได้
  • ท่าน ไม่สามารถ ตอบกระทู้ได้
  • ท่าน ไม่สามารถ แนบไฟล์ได้
  • ท่าน ไม่สามารถ แก้ไขข้อความโพสต์ได้
  • BB code สถานะ เปิด
  • Smilies สถานะ เปิด
  • [IMG] สถานะ เปิด
  • HTML สถานะ ปิด