+ ตอบกลับกระทู้
สรุปผลการค้นหา 1 ถึง 2 จากทั้งหมด 2
  1. #1
    Administrators รูปส่วนตัว Duckload.us
    สมัครเมื่อ
    Dec 2010
    โพสต์
    118,760
    Thanks
    7
    Thanked 124,732 Times in 55,831 Posts

    Lightbulb [ฝรั่ง]-[Netflix] Sex.Education : เพศศึกษา (หลักสูตรเร่งรัก) [Season 2 Complete] By หมูสลาตัน [เสียงไทย 5.1 + เสียงอังกฤษ 5.1]-[บรรยายไทย + อังกฤษ + ภาษาอื่นๆ]-[ซับไทย MASTER From Netflix]-[Master]-[พากย์ไทย บรรยายไทย]




    โอทิสหนุ่มติ๋มสุดเนิร์ดที่ฉลาดปราดเปรื่องเรื่องเพศ ศึกษาเพราะมีแม่เป็นนักบำบัด ทำให้เมฟเพื่อนจอมขบถเสนอไอเดียตั้งคลินิกบำบัดทางเพ ศในโรงเรียน


    Code:
    Format                      : Matroska
    Format version              : Version 4 / Version 2
    File size                   : 3.08 GiB
    Duration                    : 51 min 16 s
    Overall bit rate mode       : Variable
    Overall bit rate            : 8 588 kb/s
    Movie name                  : Sex.Education.S02[email protected]
    
    Video
    ID                          : 1
    Format                      : AVC
    Format/Info                 : Advanced Video Codec
    Format profile              : [email protected]
    Format settings, CABAC      : Yes
    Format settings, ReFrames   : 3 frames
    Codec ID                    : V_MPEG4/ISO/AVC
    Duration                    : 51 min 16 s
    Bit rate mode               : Variable
    Bit rate                    : 7 500 kb/s
    Maximum bit rate            : 11.2 Mb/s
    Width                       : 1 920 pixels
    Height                      : 1 080 pixels
    Display aspect ratio        : 16:9
    Frame rate mode             : Constant
    Frame rate                  : 25.000 FPS
    Color space                 : YUV
    Chroma subsampling          : 4:2:0
    Bit depth                   : 8 bits
    Scan type                   : Progressive
    Bits/(Pixel*Frame)          : 0.145
    Stream size                 : 2.62 GiB (85%)
    Title                       : [email protected]s-Siambit
    Writing library             : x264 core 148 r2715 7e75228
    Encoding settings           : cabac=1 / ref=3 / deblock=1:0:0 / analyse=0x1:0x111 / me=umh / subme=10 / psy=1 / psy_rd=1.00:0.00 / mixed_ref=1 / me_range=24 / chroma_me=1 / trellis=2 / 8x8dct=0 / cqm=0 / deadzone=21,11 / fast_pskip=1 / chroma_qp_offset=-2 / threads=8 / lookahead_threads=1 / sliced_threads=0 / nr=0 / decimate=1 / interlaced=0 / bluray_compat=0 / stitchable=1 / constrained_intra=0 / bframes=2 / b_pyramid=0 / b_adapt=2 / b_bias=0 / direct=3 / weightb=1 / open_gop=0 / weightp=2 / keyint=250 / keyint_min=25 / scenecut=0 / intra_refresh=0 / rc_lookahead=50 / rc=2pass / mbtree=1 / bitrate=7500 / ratetol=1.0 / qcomp=0.50 / qpmin=6 / qpmax=51 / qpstep=4 / cplxblur=20.0 / qblur=0.5 / vbv_maxrate=11250 / vbv_bufsize=15000 / nal_hrd=vbr / filler=0 / ip_ratio=1.40 / aq=1:1.00
    Language                    : English
    Default                     : Yes
    Forced                      : No
    
    Audio #1
    ID                          : 2
    Format                      : E-AC-3
    Format/Info                 : Enhanced Audio Coding 3
    Format settings, Endianness : Big
    Codec ID                    : A_EAC3
    Duration                    : 51 min 16 s
    Bit rate mode               : Constant
    Bit rate                    : 640 kb/s
    Channel(s)                  : 6 channels
    Channel positions           : Front: L C R, Side: L R, LFE
    Sampling rate               : 48.0 kHz
    Frame rate                  : 187.500 FPS (256 spf)
    Compression mode            : Lossy
    Stream size                 : 235 MiB (7%)
    Language                    : Thai
    Service kind                : Complete Main
    Default                     : No
    Forced                      : No
    
    Audio #2
    ID                          : 3
    Format                      : E-AC-3
    Format/Info                 : Enhanced Audio Coding 3
    Format settings, Endianness : Big
    Codec ID                    : A_EAC3
    Duration                    : 51 min 16 s
    Bit rate mode               : Constant
    Bit rate                    : 640 kb/s
    Channel(s)                  : 6 channels
    Channel positions           : Front: L C R, Side: L R, LFE
    Sampling rate               : 48.0 kHz
    Frame rate                  : 187.500 FPS (256 spf)
    Compression mode            : Lossy
    Stream size                 : 235 MiB (7%)
    Title                       : English
    Language                    : English
    Service kind                : Complete Main
    Default                     : Yes
    Forced                      : No
    
    Text #1
    ID                          : 4
    Format                      : UTF-8
    Codec ID                    : S_TEXT/UTF8
    Codec ID/Info               : UTF-8 Plain Text
    Duration                    : 50 min 11 s
    Bit rate                    : 158 b/s
    Count of elements           : 749
    Stream size                 : 58.3 KiB (0%)
    Title                       : Thai
    Language                    : Thai
    Default                     : No
    Forced                      : No
    
    Text #2
    ID                          : 5
    Format                      : UTF-8
    Codec ID                    : S_TEXT/UTF8
    Codec ID/Info               : UTF-8 Plain Text
    Duration                    : 49 min 56 s
    Bit rate                    : 77 b/s
    Count of elements           : 807
    Stream size                 : 28.5 KiB (0%)
    Language                    : English
    Default                     : No
    Forced                      : No
    
    Text #3
    ID                          : 6
    Format                      : UTF-8
    Codec ID                    : S_TEXT/UTF8
    Codec ID/Info               : UTF-8 Plain Text
    Duration                    : 50 min 10 s
    Bit rate                    : 83 b/s
    Count of elements           : 884
    Stream size                 : 30.6 KiB (0%)
    Title                       : SDH
    Language                    : English
    Default                     : No
    Forced                      : No
    
    Text #4
    ID                          : 7
    Format                      : UTF-8
    Codec ID                    : S_TEXT/UTF8
    Codec ID/Info               : UTF-8 Plain Text
    Duration                    : 50 min 11 s
    Bit rate                    : 112 b/s
    Count of elements           : 723
    Stream size                 : 41.2 KiB (0%)
    Language                    : Arabic
    Default                     : No
    Forced                      : No
    
    Text #5
    ID                          : 8
    Format                      : UTF-8
    Codec ID                    : S_TEXT/UTF8
    Codec ID/Info               : UTF-8 Plain Text
    Duration                    : 48 min 51 s
    Bit rate                    : 59 b/s
    Count of elements           : 723
    Stream size                 : 21.4 KiB (0%)
    Language                    : Czech
    Default                     : No
    Forced                      : No
    
    Text #6
    ID                          : 9
    Format                      : UTF-8
    Codec ID                    : S_TEXT/UTF8
    Codec ID/Info               : UTF-8 Plain Text
    Duration                    : 48 min 51 s
    Bit rate                    : 58 b/s
    Count of elements           : 648
    Stream size                 : 20.9 KiB (0%)
    Language                    : Danish
    Default                     : No
    Forced                      : No
    
    Text #7
    ID                          : 10
    Format                      : UTF-8
    Codec ID                    : S_TEXT/UTF8
    Codec ID/Info               : UTF-8 Plain Text
    Duration                    : 50 min 11 s
    Bit rate                    : 60 b/s
    Count of elements           : 665
    Stream size                 : 22.2 KiB (0%)
    Language                    : German
    Default                     : No
    Forced                      : No
    
    Text #8
    ID                          : 11
    Format                      : UTF-8
    Codec ID                    : S_TEXT/UTF8
    Codec ID/Info               : UTF-8 Plain Text
    Duration                    : 50 min 11 s
    Bit rate                    : 102 b/s
    Count of elements           : 723
    Stream size                 : 37.5 KiB (0%)
    Language                    : Greek
    Default                     : No
    Forced                      : No
    
    Text #9
    ID                          : 12
    Format                      : UTF-8
    Codec ID                    : S_TEXT/UTF8
    Codec ID/Info               : UTF-8 Plain Text
    Duration                    : 48 min 51 s
    Bit rate                    : 59 b/s
    Count of elements           : 696
    Stream size                 : 21.4 KiB (0%)
    Language                    : Spanish
    Default                     : No
    Forced                      : No
    
    Text #10
    ID                          : 13
    Format                      : UTF-8
    Codec ID                    : S_TEXT/UTF8
    Codec ID/Info               : UTF-8 Plain Text
    Duration                    : 48 min 51 s
    Bit rate                    : 60 b/s
    Count of elements           : 698
    Stream size                 : 21.6 KiB (0%)
    Title                       : European
    Language                    : Spanish
    Default                     : No
    Forced                      : No
    
    Text #11
    ID                          : 14
    Format                      : UTF-8
    Codec ID                    : S_TEXT/UTF8
    Codec ID/Info               : UTF-8 Plain Text
    Duration                    : 50 min 11 s
    Bit rate                    : 58 b/s
    Count of elements           : 632
    Stream size                 : 21.4 KiB (0%)
    Language                    : Finnish
    Default                     : No
    Forced                      : No
    
    Text #12
    ID                          : 15
    Format                      : UTF-8
    Codec ID                    : S_TEXT/UTF8
    Codec ID/Info               : UTF-8 Plain Text
    Duration                    : 50 min 12 s
    Bit rate                    : 57 b/s
    Count of elements           : 597
    Stream size                 : 21.1 KiB (0%)
    Language                    : French
    Default                     : No
    Forced                      : No
    
    Text #13
    ID                          : 16
    Format                      : UTF-8
    Codec ID                    : S_TEXT/UTF8
    Codec ID/Info               : UTF-8 Plain Text
    Duration                    : 49 min 8 s
    Bit rate                    : 101 b/s
    Count of elements           : 737
    Stream size                 : 36.4 KiB (0%)
    Language                    : Hebrew
    Default                     : No
    Forced                      : No
    
    Text #14
    ID                          : 17
    Format                      : UTF-8
    Codec ID                    : S_TEXT/UTF8
    Codec ID/Info               : UTF-8 Plain Text
    Duration                    : 50 min 11 s
    Bit rate                    : 58 b/s
    Count of elements           : 674
    Stream size                 : 21.5 KiB (0%)
    Language                    : Hungarian
    Default                     : No
    Forced                      : No
    
    Text #15
    ID                          : 18
    Format                      : UTF-8
    Codec ID                    : S_TEXT/UTF8
    Codec ID/Info               : UTF-8 Plain Text
    Duration                    : 50 min 11 s
    Bit rate                    : 62 b/s
    Count of elements           : 708
    Stream size                 : 22.8 KiB (0%)
    Language                    : Indonesian
    Default                     : No
    Forced                      : No
    
    Text #16
    ID                          : 19
    Format                      : UTF-8
    Codec ID                    : S_TEXT/UTF8
    Codec ID/Info               : UTF-8 Plain Text
    Duration                    : 50 min 11 s
    Bit rate                    : 58 b/s
    Count of elements           : 670
    Stream size                 : 21.6 KiB (0%)
    Language                    : Italian
    Default                     : No
    Forced                      : No
    
    Text #17
    ID                          : 20
    Format                      : UTF-8
    Codec ID                    : S_TEXT/UTF8
    Codec ID/Info               : UTF-8 Plain Text
    Duration                    : 48 min 51 s
    Bit rate                    : 53 b/s
    Count of elements           : 770
    Stream size                 : 19.1 KiB (0%)
    Language                    : Japanese
    Default                     : No
    Forced                      : No
    
    Text #18
    ID                          : 21
    Format                      : UTF-8
    Codec ID                    : S_TEXT/UTF8
    Codec ID/Info               : UTF-8 Plain Text
    Duration                    : 50 min 11 s
    Bit rate                    : 76 b/s
    Count of elements           : 741
    Stream size                 : 28.2 KiB (0%)
    Language                    : Korean
    Default                     : No
    Forced                      : No
    
    Text #19
    ID                          : 22
    Format                      : UTF-8
    Codec ID                    : S_TEXT/UTF8
    Codec ID/Info               : UTF-8 Plain Text
    Duration                    : 50 min 11 s
    Bit rate                    : 53 b/s
    Count of elements           : 680
    Stream size                 : 19.5 KiB (0%)
    Language                    : Norwegian Bokmal
    Default                     : No
    Forced                      : No
    
    Text #20
    ID                          : 23
    Format                      : UTF-8
    Codec ID                    : S_TEXT/UTF8
    Codec ID/Info               : UTF-8 Plain Text
    Duration                    : 50 min 11 s
    Bit rate                    : 58 b/s
    Count of elements           : 653
    Stream size                 : 21.4 KiB (0%)
    Language                    : Dutch
    Default                     : No
    Forced                      : No
    
    Text #21
    ID                          : 24
    Format                      : UTF-8
    Codec ID                    : S_TEXT/UTF8
    Codec ID/Info               : UTF-8 Plain Text
    Duration                    : 48 min 51 s
    Bit rate                    : 56 b/s
    Count of elements           : 705
    Stream size                 : 20.3 KiB (0%)
    Language                    : Polish
    Default                     : No
    Forced                      : No
    
    Text #22
    ID                          : 25
    Format                      : UTF-8
    Codec ID                    : S_TEXT/UTF8
    Codec ID/Info               : UTF-8 Plain Text
    Duration                    : 50 min 11 s
    Bit rate                    : 64 b/s
    Count of elements           : 711
    Stream size                 : 23.7 KiB (0%)
    Language                    : Portuguese
    Default                     : No
    Forced                      : No
    
    Text #23
    ID                          : 26
    Format                      : UTF-8
    Codec ID                    : S_TEXT/UTF8
    Codec ID/Info               : UTF-8 Plain Text
    Duration                    : 49 min 7 s
    Bit rate                    : 64 b/s
    Count of elements           : 702
    Stream size                 : 23.3 KiB (0%)
    Title                       : Brazilian
    Language                    : Portuguese
    Default                     : No
    Forced                      : No
    
    Text #24
    ID                          : 27
    Format                      : UTF-8
    Codec ID                    : S_TEXT/UTF8
    Codec ID/Info               : UTF-8 Plain Text
    Duration                    : 50 min 11 s
    Bit rate                    : 69 b/s
    Count of elements           : 672
    Stream size                 : 25.4 KiB (0%)
    Language                    : Romanian
    Default                     : No
    Forced                      : No
    
    Text #25
    ID                          : 28
    Format                      : UTF-8
    Codec ID                    : S_TEXT/UTF8
    Codec ID/Info               : UTF-8 Plain Text
    Duration                    : 50 min 11 s
    Bit rate                    : 96 b/s
    Count of elements           : 713
    Stream size                 : 35.4 KiB (0%)
    Language                    : Russian
    Default                     : No
    Forced                      : No
    
    Text #26
    ID                          : 29
    Format                      : UTF-8
    Codec ID                    : S_TEXT/UTF8
    Codec ID/Info               : UTF-8 Plain Text
    Duration                    : 50 min 11 s
    Bit rate                    : 62 b/s
    Count of elements           : 552
    Stream size                 : 23.1 KiB (0%)
    Language                    : Swedish
    Default                     : No
    Forced                      : No
    
    Text #27
    ID                          : 30
    Format                      : UTF-8
    Codec ID                    : S_TEXT/UTF8
    Codec ID/Info               : UTF-8 Plain Text
    Duration                    : 48 min 51 s
    Bit rate                    : 60 b/s
    Count of elements           : 655
    Stream size                 : 21.7 KiB (0%)
    Language                    : Turkish
    Default                     : No
    Forced                      : No
    
    Text #28
    ID                          : 31
    Format                      : UTF-8
    Codec ID                    : S_TEXT/UTF8
    Codec ID/Info               : UTF-8 Plain Text
    Duration                    : 50 min 11 s
    Bit rate                    : 89 b/s
    Count of elements           : 724
    Stream size                 : 32.9 KiB (0%)
    Language                    : Vietnamese
    Default                     : No
    Forced                      : No
    
    Text #29
    ID                          : 32
    Format                      : UTF-8
    Codec ID                    : S_TEXT/UTF8
    Codec ID/Info               : UTF-8 Plain Text
    Duration                    : 50 min 11 s
    Bit rate                    : 67 b/s
    Count of elements           : 747
    Stream size                 : 24.8 KiB (0%)
    Title                       : Simplified
    Language                    : Chinese
    Default                     : No
    Forced                      : No
    
    Text #30
    ID                          : 33
    Format                      : UTF-8
    Codec ID                    : S_TEXT/UTF8
    Codec ID/Info               : UTF-8 Plain Text
    Duration                    : 50 min 11 s
    Bit rate                    : 67 b/s
    Count of elements           : 722
    Stream size                 : 24.8 KiB (0%)
    Title                       : Traditional
    Language                    : Chinese
    Default                     : No
    Forced                      : No














    1
    http://www.filecondo.com/dl.php?f=e228a71ITyxs
    2
    http://www.filecondo.com/dl.php?f=L4b5151ITyyj
    3
    http://www.filecondo.com/dl.php?f=ef21d41ITyzg
    4
    http://www.filecondo.com/dl.php?f=F392711ITyAe
    5
    http://www.filecondo.com/dl.php?f=ia3df51ITyBf
    6
    http://www.filecondo.com/dl.php?f=Ta4ffa1ITyCc
    7
    http://www.filecondo.com/dl.php?f=wa34ba1ITyD8
    8
    http://www.filecondo.com/dl.php?f=o932531ITyE7

  2. #2
    Senior Member
    สมัครเมื่อ
    Jul 2013
    โพสต์
    1,196
    Thanks
    0
    Thanked 0 Times in 0 Posts
    ขอบคุณครับผม

+ ตอบกลับกระทู้

ข้อมูลกระทู้

Users Browsing this Thread

ในขณะนี้มี 1 ท่านดูกระทู้อยู่. (0 สมาชิกและ 1 ผู้เยี่ยมชม)

     

กฎการโพสต์ข้อความ

  • ท่าน ไม่สามารถ ตั้งกระทู้ใหม่ได้
  • ท่าน ไม่สามารถ ตอบกระทู้ได้
  • ท่าน ไม่สามารถ แนบไฟล์ได้
  • ท่าน ไม่สามารถ แก้ไขข้อความโพสต์ได้
  • BB code สถานะ เปิด
  • Smilies สถานะ เปิด
  • [IMG] สถานะ เปิด
  • HTML สถานะ ปิด