+ ตอบกลับกระทู้
สรุปผลการค้นหา 1 ถึง 4 จากทั้งหมด 4
  1. #1
    Administrators รูปส่วนตัว Duckload.us
    สมัครเมื่อ
    Dec 2010
    โพสต์
    112,806
    Thanks
    7
    Thanked 118,668 Times in 53,694 Posts

    Thumbs up [เกาหลี]-[NF] Crash Landing On You (2019) ปักหมุดรักฉุกเฉิน (FULL 16 Episodes)-WEB-DL.H.264.1080p. [Master]-[Soundtrack บรรยายไทย]




    Crash Landing on You



    Rating: 9/10 Year: 2019 Genres: Comedy / Romance Runtime: 70 min Language: Korean Director: n/A Writers: Ji Eun Park Cast: Hyun Bin / Ye-jin Son / Ji-hye Seoโ€ฆ Plot:

    n/A

    เซรีกลับไปสู่ชีวิตเดิมที่สุขสบายและพยายามจัดการเรื ่องทุกอย่าง แต่กลับรู้สึกไม่เหมือนเดิม ส่วนจองฮยอกตัดสินใจไล่ล่าชอลกัง

    Format : Matroska
    Format version : Version 4
    File size : 1.71 GiB
    Duration : 1 h 51 min
    Overall bit rate : 2 186 kb/s
    Encoded date : UTC 2020-02-16 14:44:17
    Writing application : mkvmerge v43.0.0 ('The Quartermaster') 64-bit
    Writing library : libebml v1.3.10 + libmatroska v1.5.2

    Video
    ID : 1
    Format : AVC
    Format/Info : Advanced Video Codec
    Format profile : [email protected]
    Format settings : CABAC / 3 Ref Frames
    Format settings, CABAC : Yes
    Format settings, Reference frames : 3 frames
    Codec ID : V_MPEG4/ISO/AVC
    Duration : 1 h 51 min
    Bit rate : 2 029 kb/s
    Width : 1 920 pixels
    Height : 1 080 pixels
    Display aspect ratio : 16:9
    Frame rate mode : Constant
    Frame rate : 23.976 (24000/1001) FPS
    Color space : YUV
    Chroma subsampling : 4:2:0
    Bit depth : 8 bits
    Scan type : Progressive
    Bits/(Pixel*Frame) : 0.041
    Stream size : 1.59 GiB (93%)
    Default : Yes
    Forced : No

    Audio
    ID : 2
    Format : AAC LC SBR
    Format/Info : Advanced Audio Codec Low Complexity with Spectral Band Replication
    Commercial name : HE-AAC
    Format settings : Explicit
    Codec ID : A_AAC-2
    Duration : 1 h 51 min
    Bit rate : 128 kb/s
    Channel(s) : 2 channels
    Channel layout : L R
    Sampling rate : 48.0 kHz
    Frame rate : 23.438 FPS (2048 SPF)
    Compression mode : Lossy
    Stream size : 102 MiB (6%)
    Language : Korean
    Default : Yes
    Forced : No

    Text
    ID : 3
    Format : PGS
    Muxing mode : zlib
    Codec ID : S_HDMV/PGS
    Codec ID/Info : Picture based subtitle format used on BDs/HD-DVDs
    Duration : 1 h 51 min
    Bit rate : 43.7 kb/s
    Count of elements : 2618
    Stream size : 34.9 MiB (2%)
    Default : Yes
    Forced : No








    Download: filecondo
    แบบรวมไฟล์ 20.69 GB
    http://www.filecondo.com/dl.php?f=qc6a9a1J3GX2
    *****************
    1
    http://www.filecondo.com/dl.php?f=92e64b1ITWTT
    2
    http://www.filecondo.com/dl.php?f=I233111ITWUP
    3
    http://www.filecondo.com/dl.php?f=bf15ff1ITWVP
    4
    http://www.filecondo.com/dl.php?f=a50cad1ITWWN
    5
    http://www.filecondo.com/dl.php?f=vdd2061ITWXJ
    6
    http://www.filecondo.com/dl.php?f=49d6561ITWYH
    7
    http://www.filecondo.com/dl.php?f=Hefc581ITWZG
    8
    http://www.filecondo.com/dl.php?f=Pe2f471ITX0F
    9
    http://www.filecondo.com/dl.php?f=1ff04d1ITX1C
    10
    http://www.filecondo.com/dl.php?f=53fa371ITWSV
    11
    http://www.filecondo.com/dl.php?f=H66df81IZypE
    12
    http://www.filecondo.com/dl.php?f=l6a4841IZyqB
    13
    http://www.filecondo.com/dl.php?f=E674871J1oEt
    14
    http://www.filecondo.com/dl.php?f=Zff9521J1oFr
    15
    http://www.filecondo.com/dl.php?f=N212001J3i5r
    16
    http://www.filecondo.com/dl.php?f=N1c20c1J3F3a


    Download: cornfile
    [ซีซัน 1.Ep10] ปักหมุดรักฉุกเฉิน - ตอน 10.mkv - 1.2 GB
    [ซีซัน 1.Ep11] ปักหมุดรักฉุกเฉิน - ตอน 11.mkv - 1.4 GB
    [ซีซัน 1.Ep12] ปักหมุดรักฉุกเฉิน - ตอน 12.mkv - 1.2 GB
    [ซีซัน 1.Ep13] ปักหมุดรักฉุกเฉิน - ตอน 13.mkv - 1.2 GB
    [ซีซัน 1.Ep14] ปักหมุดรักฉุกเฉิน - ตอน 14.mkv - 1.3 GB
    [ซีซัน 1.Ep15] ปักหมุดรักฉุกเฉิน - ตอน 15.mkv - 1.0 GB
    [ซีซัน 1.Ep16] ปักหมุดรักฉุกเฉิน - ตอน 16.mkv - 1.7 GB
    [ซีซัน 1.Ep1] ปักหมุดรักฉุกเฉิน - ตอน 1.mkv - 1.5 GB
    [ซีซัน 1.Ep2] ปักหมุดรักฉุกเฉิน - ตอน 2.mkv - 1.3 GB
    [ซีซัน 1.Ep3] ปักหมุดรักฉุกเฉิน - ตอน 3.mkv - 1.2 GB
    [ซีซัน 1.Ep4] ปักหมุดรักฉุกเฉิน - ตอน 4.mkv - 1.4 GB
    [ซีซัน 1.Ep5] ปักหมุดรักฉุกเฉิน - ตอน 5.mkv - 1.2 GB
    [ซีซัน 1.Ep6] ปักหมุดรักฉุกเฉิน - ตอน 6.mkv - 1.2 GB
    [ซีซัน 1.Ep7] ปักหมุดรักฉุกเฉิน - ตอน 7.mkv - 1.3 GB
    [ซีซัน 1.Ep8] ปักหมุดรักฉุกเฉิน - ตอน 8.mkv - 1.4 GB
    [ซีซัน 1.Ep9] ปักหมุดรักฉุกเฉิน - ตอน 9.mkv - 1.2 GB

  2. The Following 3 Users Say Thank You to Duckload.us For This Useful Post:

    jangska (03-05-2020), kappa (02-20-2020), Wesker_TOT (02-18-2020)

  3. #2
    Administrators รูปส่วนตัว Duckload.us
    สมัครเมื่อ
    Dec 2010
    โพสต์
    112,806
    Thanks
    7
    Thanked 118,668 Times in 53,694 Posts
    [เกาหลี]-[NF] Crash Landing On You (2019) ปักหมุดรักฉุกเฉิน (FULL 16 Episodes)-WEB-DL.H.264.1080p. [Master]-[Soundtrack บรรยายไทย]

  4. #3
    Senior Member
    สมัครเมื่อ
    Dec 2013
    โพสต์
    2,036
    Thanks
    3,957
    Thanked 0 Times in 0 Posts
    ขอบคุณนะครับ...

  5. #4
    Senior Member
    สมัครเมื่อ
    Jul 2013
    โพสต์
    327
    Thanks
    0
    Thanked 0 Times in 0 Posts
    ขอบคุณครับผม

+ ตอบกลับกระทู้

ข้อมูลกระทู้

Users Browsing this Thread

ในขณะนี้มี 1 ท่านดูกระทู้อยู่. (0 สมาชิกและ 1 ผู้เยี่ยมชม)

     

กฎการโพสต์ข้อความ

  • ท่าน ไม่สามารถ ตั้งกระทู้ใหม่ได้
  • ท่าน ไม่สามารถ ตอบกระทู้ได้
  • ท่าน ไม่สามารถ แนบไฟล์ได้
  • ท่าน ไม่สามารถ แก้ไขข้อความโพสต์ได้
  • BB code สถานะ เปิด
  • Smilies สถานะ เปิด
  • [IMG] สถานะ เปิด
  • HTML สถานะ ปิด