+ ตอบกลับกระทู้
สรุปผลการค้นหา 1 ถึง 4 จากทั้งหมด 4
  1. #1
    Administrators รูปส่วนตัว Duckload.us
    สมัครเมื่อ
    Dec 2010
    โพสต์
    111,442
    Thanks
    7
    Thanked 116,898 Times in 53,188 Posts

    Question [ฝรั่ง]-{เสียงไทยโรง+บรรยายไทยแปล}**Midway (2019) : อเมริกาถล่มญี่ปุ่น**[เสียงอังกฤษ AC-3 2.0 + เสียงไทยโรงฯ : บรรยายไทยแปลPGSคมชัด + อังกฤษSRT]-WEB-DL.H.264.1080p. [Modified]-[พากย์ไทย บรรยายไทย]







    โปรเจกต์หนังสงครามฟอร์มยักษ์แห่งปี เรียกได้ว่าภาพมหาสงครามตรงหน้าจะทำให้ผู้ชมทั้งตื่น ตะลึง ลุ้นระทึก และบีบหัวใจตามกับ ยุทธการมิดเวย์ ปฏิบัติการทางทหารซึ่งถือว่าเป็นสิ่งสำคัญที่สุดในแน วรบด้านมหาสมุทรแปซิฟิกของช่วงสงครามโลกครั้งที่ 2 ด้วยกลยุทธ์การปะทะแบบ 360 องศาระหว่างกองทัพเรือสหรัฐฯ และกองทัพของญี่ปุ่น ที่ถึงแม้จะกินเวลาเพียง 4 วัน แต่กลับสร้างจุดเปลี่ยนเกมรบของสงครามโลกครั้งที่ 2 ไปตลอดกาล

    Format : Matroska
    Format version : Version 4
    File size : 4.42 GiB
    Duration : 2 h 16 min
    Overall bit rate : 4 646 kb/s
    Movie name : EVO
    Encoded date : UTC 2020-01-24 05:30:19
    Writing application : mkvmerge v20.0.0 ('I Am The Sun') 64-bit
    Writing library : libebml v1.3.5 + libmatroska v1.4.8

    Video
    ID : 1
    Format : AVC
    Format/Info : Advanced Video Codec
    Format profile : [email protected]
    Format settings : CABAC / 4 Ref Frames
    Format settings, CABAC : Yes
    Format settings, Reference frames : 4 frames
    Codec ID : V_MPEG4/ISO/AVC
    Duration : 2 h 16 min
    Bit rate : 3 588 kb/s
    Width : 1 920 pixels
    Height : 856 pixels
    Display aspect ratio : 2.25:1
    Frame rate mode : Constant
    Frame rate : 24.000 FPS
    Color space : YUV
    Chroma subsampling : 4:2:0
    Bit depth : 8 bits
    Scan type : Progressive
    Bits/(Pixel*Frame) : 0.091
    Stream size : 3.41 GiB (77%)
    Writing library : x264 core 142 r2479 dd79a61
    Encoding settings : cabac=1 / ref=1 / deblock=1:0:0 / analyse=0x3:0x3 / me=dia / subme=1 / psy=1 / psy_rd=1.00:0.00 / mixed_ref=0 / me_range=16 / chroma_me=1 / trellis=0 / 8x8dct=1 / cqm=0 / deadzone=21,11 / fast_pskip=1 / chroma_qp_offset=0 / threads=24 / lookahead_threads=4 / sliced_threads=0 / nr=0 / decimate=1 / interlaced=0 / bluray_compat=0 / constrained_intra=0 / bframes=3 / b_pyramid=2 / b_adapt=1 / b_bias=0 / direct=1 / weightb=1 / open_gop=0 / weightp=1 / keyint=240 / keyint_min=24 / scenecut=40 / intra_refresh=0 / rc_lookahead=0 / rc=abr / mbtree=0 / bitrate=3588 / ratetol=1.0 / qcomp=0.60 / qpmin=0 / qpmax=69 / qpstep=4 / vbv_maxrate=62500 / vbv_bufsize=78125 / nal_hrd=none / filler=0 / ip_ratio=1.40 / pb_ratio=1.30 / aq=1:1.00
    Default : Yes
    Forced : No
    Color range : Limited
    Color primaries : BT.709
    Transfer characteristics : BT.709
    Matrix coefficients : BT.709

    Audio #1
    ID : 2
    Format : AC-3
    Format/Info : Audio Coding 3
    Commercial name : Dolby Digital
    Codec ID : A_AC3
    Duration : 2 h 16 min
    Bit rate mode : Constant
    Bit rate : 384 kb/s
    Channel(s) : 2 channels
    Channel layout : L R
    Sampling rate : 48.0 kHz
    Frame rate : 31.250 FPS (1536 SPF)
    Bit depth : 16 bits
    Compression mode : Lossy
    Delay relative to video : -5 ms
    Stream size : 374 MiB (8%)
    Title : Stereo
    Language : English
    Service kind : Complete Main
    Default : Yes
    Forced : No

    Audio #2
    ID : 3
    Format : AC-3
    Format/Info : Audio Coding 3
    Commercial name : Dolby Digital
    Codec ID : A_AC3
    Duration : 2 h 16 min
    Bit rate mode : Constant
    Bit rate : 640 kb/s
    Channel(s) : 6 channels
    Channel layout : L R C LFE Ls Rs
    Sampling rate : 48.0 kHz
    Frame rate : 31.250 FPS (1536 SPF)
    Bit depth : 16 bits
    Compression mode : Lossy
    Delay relative to video : -83 ms
    Stream size : 624 MiB (14%)
    Language : Thai
    Service kind : Complete Main
    Default : No
    Forced : No

    Text #1
    ID : 4
    Format : PGS
    Muxing mode : zlib
    Codec ID : S_HDMV/PGS
    Codec ID/Info : Picture based subtitle format used on BDs/HD-DVDs
    Duration : 2 h 6 min
    Bit rate : 45.3 kb/s
    Count of elements : 3174
    Stream size : 40.8 MiB (1%)
    Title : Angsana UPC
    Language : Thai
    Default : Yes
    Forced : No

    Text #2
    ID : 5
    Format : PGS
    Muxing mode : zlib
    Codec ID : S_HDMV/PGS
    Codec ID/Info : Picture based subtitle format used on BDs/HD-DVDs
    Duration : 2 h 6 min
    Bit rate : 40.9 kb/s
    Count of elements : 3174
    Stream size : 36.9 MiB (1%)
    Title : Tahoma
    Language : Thai
    Default : No
    Forced : No

    Text #3
    ID : 6
    Format : VobSub
    Muxing mode : zlib
    Codec ID : S_VOBSUB
    Codec ID/Info : Picture based subtitle format used on DVDs
    Duration : 2 h 6 min
    Bit rate : 5 576 b/s
    Count of elements : 1587
    Stream size : 5.03 MiB (0%)
    Title : Angsana UPC
    Language : Thai
    Default : No
    Forced : No

    Text #4
    ID : 7
    Format : VobSub
    Muxing mode : zlib
    Codec ID : S_VOBSUB
    Codec ID/Info : Picture based subtitle format used on DVDs
    Duration : 2 h 6 min
    Bit rate : 5 174 b/s
    Count of elements : 1587
    Stream size : 4.67 MiB (0%)
    Title : Tahoma
    Language : Thai
    Default : No
    Forced : No

    Text #5
    ID : 8
    Format : UTF-8
    Codec ID : S_TEXT/UTF8
    Codec ID/Info : UTF-8 Plain Text
    Duration : 2 h 6 min
    Bit rate : 42 b/s
    Count of elements : 1397
    Stream size : 39.3 KiB (0%)
    Language : English
    Default : No
    Forced : No



    Download: cornfile
    http://cornfile.com/fyec9z4bfw24
    Download: mekafile
    http://www.mekafile.com/dl.php?f=mB3f47c4qxYc

  2. The Following 2 Users Say Thank You to Duckload.us For This Useful Post:

    noi54 (01-28-2020), Tatum03 (01-26-2020)

  3. #2
    Junior Member
    สมัครเมื่อ
    Mar 2019
    โพสต์
    16
    Thanks
    0
    Thanked 0 Times in 0 Posts
    cornfile เข้าไม่ได้ บอก expire เกิดอะไรขึ้นครับ

  4. #3
    Senior Member
    สมัครเมื่อ
    Jun 2014
    โพสต์
    2,638
    Thanks
    0
    Thanked 0 Times in 0 Posts
    ขอบคุณครับ

  5. #4
    Senior Member
    สมัครเมื่อ
    Oct 2013
    ที่อยู่
    Thailand
    โพสต์
    1,237
    Thanks
    1,110
    Thanked 0 Times in 0 Posts
    ขอบคุณมาก

+ ตอบกลับกระทู้

ข้อมูลกระทู้

Users Browsing this Thread

ในขณะนี้มี 1 ท่านดูกระทู้อยู่. (0 สมาชิกและ 1 ผู้เยี่ยมชม)

     

กฎการโพสต์ข้อความ

  • ท่าน ไม่สามารถ ตั้งกระทู้ใหม่ได้
  • ท่าน ไม่สามารถ ตอบกระทู้ได้
  • ท่าน ไม่สามารถ แนบไฟล์ได้
  • ท่าน ไม่สามารถ แก้ไขข้อความโพสต์ได้
  • BB code สถานะ เปิด
  • Smilies สถานะ เปิด
  • [IMG] สถานะ เปิด
  • HTML สถานะ ปิด