+ ตอบกลับกระทู้
สรุปผลการค้นหา 1 ถึง 4 จากทั้งหมด 4
  1. #1
    Administrators รูปส่วนตัว Duckload.us
    สมัครเมื่อ
    Dec 2010
    โพสต์
    111,173
    Thanks
    7
    Thanked 116,507 Times in 53,093 Posts

    Question [ฝรั่ง]-Terminator Dark Fate ฅนเหล็ก วิกฤตชะตาโลก - [Soundtrack] [บรรยายไทย+อังกฤษ] [บรรยายมาสเตอร์] 1080p.AMZN.WEB-DL.DDP5.1.H.264



    Terminator ภาคใหม่ ภายใต้การกำกับของ ทิม มิลเลอร์ (Deadpool) ลินดา ฮามิลตัน ที่จะกลับมาอีกครั้งในฐานะ “ซาร่าห์ คอนเนอร์” หลังจากที่เธอปรากฏตัวครั้งล่าสุดใน Terminator 2: Judgment Day (1991) แต่ครั้งนี้เธอไม่ได้มาคนเดียว เธอยังพาฮีโร่หญิงเลือดใหม่ นาตาลี เรเยส มาแนะนำให้เราได้รู้จักในฐานะ “ดานิ รามอส” พร้อมกับ “เกรซ” นักรบหญิงจากโลกอนาคต ที่รับบทโดย แม็คเคนซี่ เดวิส อีกด้วย

    แน่นอนว่าตำนานคนเหล็ก อาร์โนลด์ ชวาสเซเนเกอร์ ก็จะกลับมาร่วมภารกิจครั้งนี้ด้วย โดยมี เจมส์ คาเมรอน กลับมานั่งแท่นอำนวยการสร้างร่วมกับ เดวิด แอลลิสัน อำนวยการผลิตโดย ดาน่า โกล์ดเบิร์ก, ดอน แกรนเจอร์, บอนนี่ เคอร์ติส, จูลี่ ลินน์, ทิม มิลเลอร์, จอห์น เคลลี่ และเอ็ดเวิร์ด เฉิง

    Duration : 2 h 8 min
    Overall bit rate : 9 132 kb/s
    Encoded date : UTC 2020-01-25 03:29:49
    Writing application : mkvmerge v42.0.0 ('Overtime') 64-bit
    Writing library : libebml v1.3.10 + libmatroska v1.5.2
    Cover : Yes
    Attachments : cover

    Video
    ID : 1
    Format : AVC
    Format/Info : Advanced Video Codec
    Format profile : [email protected]
    Format settings : CABAC / 4 Ref Frames
    Format settings, CABAC : Yes
    Format settings, Reference frames : 4 frames
    Codec ID : V_MPEG4/ISO/AVC
    Duration : 2 h 8 min
    Bit rate mode : Constant
    Bit rate : 8 455 kb/s
    Nominal bit rate : 10 000 kb/s
    Width : 1 920 pixels
    Height : 800 pixels
    Display aspect ratio : 2.40:1
    Frame rate mode : Constant
    Frame rate : 23.976 (24000/1001) FPS
    Color space : YUV
    Chroma subsampling : 4:2:0
    Bit depth : 8 bits
    Scan type : Progressive
    Bits/(Pixel*Frame) : 0.230
    Stream size : 7.57 GiB (93%)
    Default : Yes
    Forced : No
    Color range : Limited
    Color primaries : BT.709
    Transfer characteristics : BT.709
    Matrix coefficients : BT.709

    Audio
    ID : 2
    Format : E-AC-3
    Format/Info : Enhanced AC-3
    Commercial name : Dolby Digital Plus
    Codec ID : A_EAC3
    Duration : 2 h 8 min
    Bit rate mode : Constant
    Bit rate : 640 kb/s
    Channel(s) : 6 channels
    Channel layout : L R C LFE Ls Rs
    Sampling rate : 48.0 kHz
    Frame rate : 31.250 FPS (1536 SPF)
    Compression mode : Lossy
    Stream size : 586 MiB (7%)
    Language : English
    Service kind : Complete Main
    Default : Yes
    Forced : No

    Text #1
    ID : 3
    Format : VobSub
    Muxing mode : zlib
    Codec ID : S_VOBSUB
    Codec ID/Info : Picture based subtitle format used on DVDs
    Duration : 1 h 57 min
    Bit rate : 8 966 b/s
    Count of elements : 1430
    Stream size : 7.54 MiB (0%)
    Language : English
    Default : No
    Forced : No

    Text #2
    ID : 4
    Format : PGS
    Muxing mode : zlib
    Codec ID : S_HDMV/PGS
    Codec ID/Info : Picture based subtitle format used on BDs/HD-DVDs
    Duration : 1 h 57 min
    Bit rate : 41.4 kb/s
    Count of elements : 2860
    Stream size : 34.8 MiB (0%)
    Language : English
    Default : No
    Forced : No

    Text #3
    ID : 5
    Format : VobSub
    Muxing mode : zlib
    Codec ID : S_VOBSUB
    Codec ID/Info : Picture based subtitle format used on DVDs
    Duration : 2 h 7 min
    Bit rate : 4 803 b/s
    Count of elements : 1245
    Stream size : 4.38 MiB (0%)
    Language : Thai
    Default : No
    Forced : No

    Text #4
    ID : 6
    Format : PGS
    Muxing mode : zlib
    Codec ID : S_HDMV/PGS
    Codec ID/Info : Picture based subtitle format used on BDs/HD-DVDs
    Duration : 2 h 7 min
    Bit rate : 23.2 kb/s
    Count of elements : 2490
    Stream size : 21.2 MiB (0%)
    Language : Thai
    Default : Yes
    Forced : No



    Download: cornfile
    http://cornfile.com/syixte4ysfu2
    Download: mekafile
    http://www.mekafile.com/dl.php?f=6q4201c4tlw6

  2. The Following User Says Thank You to Duckload.us For This Useful Post:

    Tatum03 (01-25-2020)

  3. #2
    Senior Member
    สมัครเมื่อ
    Oct 2013
    ที่อยู่
    Thailand
    โพสต์
    1,227
    Thanks
    1,102
    Thanked 0 Times in 0 Posts
    ขอบคุณมาก

  4. #3
    Senior Member
    สมัครเมื่อ
    Jun 2014
    โพสต์
    2,563
    Thanks
    0
    Thanked 0 Times in 0 Posts
    ขอบคุณครับ

  5. #4
    Senior Member
    สมัครเมื่อ
    Oct 2013
    โพสต์
    1,643
    Thanks
    0
    Thanked 0 Times in 0 Posts
    ขอบคุณครับ

+ ตอบกลับกระทู้

ข้อมูลกระทู้

Users Browsing this Thread

ในขณะนี้มี 1 ท่านดูกระทู้อยู่. (0 สมาชิกและ 1 ผู้เยี่ยมชม)

     

กฎการโพสต์ข้อความ

  • ท่าน ไม่สามารถ ตั้งกระทู้ใหม่ได้
  • ท่าน ไม่สามารถ ตอบกระทู้ได้
  • ท่าน ไม่สามารถ แนบไฟล์ได้
  • ท่าน ไม่สามารถ แก้ไขข้อความโพสต์ได้
  • BB code สถานะ เปิด
  • Smilies สถานะ เปิด
  • [IMG] สถานะ เปิด
  • HTML สถานะ ปิด