+ ตอบกลับกระทู้
สรุปผลการค้นหา 1 ถึง 4 จากทั้งหมด 4
  1. #1
    Administrators รูปส่วนตัว Duckload.us
    สมัครเมื่อ
    Dec 2010
    โพสต์
    111,263
    Thanks
    7
    Thanked 116,714 Times in 53,142 Posts

    Question [ฝรั่ง]-((>ใหม่4k Remux Full Bitrate<)) Terminator: Dark Fate (2019) / ฅนเหล็ก: วิกฤตชะตาโลก [พากย์ไทย มาสเตอร์ + เสียงอังกฤษ TrueHD 7.1.Atmos + เสียงอังกฤษ DTS-HD MA 7.1]-[บรรยายไทย + อังกฤษ]-[เสียงไทย + ซับไทย Master From iTunes + ซับ PGS ค




    Terminator: Dark Fate (2019)
    Terminator ภาคใหม่ ภายใต้การกำกับของ ทิม มิลเลอร์ (Deadpool) ลินดา ฮามิลตัน ที่จะกลับมาอีกครั้งในฐานะ “ซาร่าห์ คอนเนอร์”
    หลังจากที่เธอปรากฏตัวครั้งล่าสุดใน Terminator 2: Judgment Day (1991) แต่ครั้งนี้เธอไม่ได้มาคนเดียว เธอยังพาฮีโร่หญิงเลือดใหม่ นาตาลี เรเยส
    มาแนะนำให้เราได้รู้จักในฐานะ “ดานิ รามอส” พร้อมกับ “เกรซ” นักรบหญิงจากโลกอนาคต ที่รับบทโดย แม็คเคนซี่ เดวิส อีกด้วย
    •
    •
    แน่นอนว่าตำนานคนเหล็ก อาร์โนลด์ ชวาสเซเนเกอร์ ก็จะกลับมาร่วมภารกิจครั้งนี้ด้วย
    โดยมี เจมส์ คาเมรอน กลับมานั่งแท่นอำนวยการสร้างร่วมกับ เดวิด แอลลิสัน
    อำนวยการผลิตโดย ดาน่า โกล์ดเบิร์ก, ดอน แกรนเจอร์, บอนนี่ เคอร์ติส, จูลี่ ลินน์, ทิม มิลเลอร์, จอห์น เคลลี่ และเอ็ดเวิร์ด เฉิง!!!

    Code:
    Format                      : Matroska
    Format version              : Version 4 / Version 2
    File size                   : 52.4 GiB
    Duration                    : 2 h 8 min
    Overall bit rate mode       : Variable
    Overall bit rate            : 58.5 Mb/s
    Movie name                  : [4K Remux]_Terminator.D[email protected]LaKraTos
    
    Video
    ID                          : 1
    Format                      : HEVC
    Format/Info                 : High Efficiency Video Coding
    Format profile              : Main [email protected]@High
    Codec ID                    : V_MPEGH/ISO/HEVC
    Duration                    : 2 h 8 min
    Bit rate                    : 48.7 Mb/s
    Width                       : 3 840 pixels
    Height                      : 2 160 pixels
    Display aspect ratio        : 16:9
    Frame rate mode             : Constant
    Frame rate                  : 23.976 (24000/1001) FPS
    Color space                 : YUV
    Chroma subsampling          : 4:2:0 (Type 2)
    Bit depth                   : 10 bits
    Bits/(Pixel*Frame)          : 0.245
    Stream size                 : 43.6 GiB (83%)
    Title                       : [4K Remux]_Terminator.D[email protected]LaKraTos
    Language                    : English
    Default                     : Yes
    Forced                      : No
    Color range                 : Limited
    Color primaries             : BT.2020
    Transfer characteristics    : SMPTE ST 2084
    Matrix coefficients         : BT.2020 non-constant
    Mastering display color pri : R: x=0.680000 y=0.320000, G: x=0.265000 y=0.690000, B: x=0.150000 y=0.060000, White point: x=0.312700 y=0.329000
    Mastering display luminance : min: 0.0001 cd/m2, max: 1000.0000 cd/m2
    Maximum Content Light Level : 1000 cd/m2
    Maximum Frame-Average Light : 446 cd/m2
    
    Audio #1
    ID                          : 2
    Format                      : AC-3
    Format/Info                 : Audio Coding 3
    Format settings, Endianness : Big
    Codec ID                    : A_AC3
    Duration                    : 2 h 8 min
    Bit rate mode               : Constant
    Bit rate                    : 384 kb/s
    Channel(s)                  : 2 channels
    Channel positions           : Front: L R
    Sampling rate               : 48.0 kHz
    Frame rate                  : 31.250 FPS (1536 spf)
    Bit depth                   : 16 bits
    Compression mode            : Lossy
    Stream size                 : 352 MiB (1%)
    Title                       : Thai Master
    Language                    : Thai
    Service kind                : Complete Main
    Default                     : Yes
    Forced                      : Yes
    
    Audio #2
    ID                          : 3
    Format                      : TrueHD
    Format profile              : TrueHD+Atmos / TrueHD
    Codec ID                    : A_TRUEHD
    Duration                    : 2 h 8 min
    Bit rate mode               : Variable
    Bit rate                    : 4 634 kb/s
    Maximum bit rate            : 8 247 kb/s
    Channel(s)                  : Object Based / 8 channels
    Channel positions           : Object Based / Front: L C R, Side: L R, Back: L R, LFE
    Sampling rate               :  / 48.0 kHz
    Frame rate                  : 1 200.000 FPS (40 spf)
    Compression mode            : Lossless
    Stream size                 : 4.15 GiB (8%)
    Title                       : English TrueHD Atmos 7.1
    Language                    : English
    Default                     : No
    Forced                      : No
    
    Audio #3
    ID                          : 4
    Format                      : DTS
    Format/Info                 : Digital Theater Systems
    Format profile              : MA / Core
    Mode                        : 16
    Format settings, Endianness : Big
    Codec ID                    : A_DTS
    Duration                    : 2 h 8 min
    Bit rate mode               : Variable / Constant
    Bit rate                    : 4 060 kb/s / 1 509 kb/s
    Channel(s)                  : 8 channels / 6 channels
    Channel positions           : Front: L C R, Side: L R, Back: L R, LFE / Front: L C R, Side: L R, LFE
    Sampling rate               : 48.0 kHz
    Frame rate                  : 93.750 FPS (512 spf)
    Bit depth                   : 24 bits
    Compression mode            : Lossless / Lossy
    Stream size                 : 3.63 GiB (7%)
    Title                       : English DTS-HD MA 7.1
    Language                    : English
    Default                     : No
    Forced                      : No
    
    Audio #4
    ID                          : 5
    Format                      : AC-3
    Format/Info                 : Audio Coding 3
    Format settings, Endianness : Big
    Codec ID                    : A_AC3
    Duration                    : 2 h 8 min
    Bit rate mode               : Constant
    Bit rate                    : 640 kb/s
    Channel(s)                  : 6 channels
    Channel positions           : Front: L C R, Side: L R, LFE
    Sampling rate               : 48.0 kHz
    Frame rate                  : 31.250 FPS (1536 spf)
    Bit depth                   : 16 bits
    Compression mode            : Lossy
    Stream size                 : 586 MiB (1%)
    Title                       : English AC3 5.1
    Language                    : English
    Service kind                : Complete Main
    Default                     : No
    Forced                      : No
    
    Text #1
    ID                          : 6
    Format                      : VobSub
    Muxing mode                 : zlib
    Codec ID                    : S_VOBSUB
    Codec ID/Info               : Picture based subtitle format used on DVDs
    Duration                    : 2 h 7 min
    Bit rate                    : 1 867 b/s
    Count of elements           : 1248
    Stream size                 : 1.70 MiB (0%)
    Title                       : Thai 720p
    Language                    : Thai
    Default                     : No
    Forced                      : No
    
    Text #2
    ID                          : 7
    Format                      : VobSub
    Muxing mode                 : zlib
    Codec ID                    : S_VOBSUB
    Codec ID/Info               : Picture based subtitle format used on DVDs
    Duration                    : 2 h 7 min
    Bit rate                    : 3 001 b/s
    Count of elements           : 1248
    Stream size                 : 2.74 MiB (0%)
    Title                       : Thai 1080p
    Language                    : Thai
    Default                     : Yes
    Forced                      : Yes
    
    Text #3
    ID                          : 8
    Format                      : VobSub
    Muxing mode                 : zlib
    Codec ID                    : S_VOBSUB
    Codec ID/Info               : Picture based subtitle format used on DVDs
    Duration                    : 2 h 7 min
    Bit rate                    : 2 999 b/s
    Count of elements           : 1248
    Stream size                 : 2.74 MiB (0%)
    Title                       : Thai 1080p Yellow
    Language                    : Thai
    Default                     : No
    Forced                      : No
    
    Text #4
    ID                          : 9
    Format                      : VobSub
    Muxing mode                 : zlib
    Codec ID                    : S_VOBSUB
    Codec ID/Info               : Picture based subtitle format used on DVDs
    Duration                    : 2 h 7 min
    Bit rate                    : 3 006 b/s
    Count of elements           : 1248
    Stream size                 : 2.74 MiB (0%)
    Title                       : Thai 1080p Out
    Language                    : Thai
    Default                     : No
    Forced                      : No
    
    Text #5
    ID                          : 10
    Format                      : VobSub
    Muxing mode                 : zlib
    Codec ID                    : S_VOBSUB
    Codec ID/Info               : Picture based subtitle format used on DVDs
    Duration                    : 2 h 7 min
    Bit rate                    : 3 913 b/s
    Count of elements           : 1248
    Stream size                 : 3.57 MiB (0%)
    Title                       : Thai 1080p BIG
    Language                    : Thai
    Default                     : No
    Forced                      : No
    
    Text #6
    ID                          : 11
    Format                      : VobSub
    Muxing mode                 : zlib
    Codec ID                    : S_VOBSUB
    Codec ID/Info               : Picture based subtitle format used on DVDs
    Duration                    : 2 h 7 min
    Bit rate                    : 3 917 b/s
    Count of elements           : 1248
    Stream size                 : 3.58 MiB (0%)
    Title                       : Thai 1080p Out [BIG]
    Language                    : Thai
    Default                     : No
    Forced                      : No
    
    Text #7
    ID                          : 12
    Format                      : PGS
    Muxing mode                 : zlib
    Codec ID                    : S_HDMV/PGS
    Codec ID/Info               : Picture based subtitle format used on BDs/HD-DVDs
    Duration                    : 2 h 7 min
    Bit rate                    : 10.2 kb/s
    Count of elements           : 2496
    Stream size                 : 9.32 MiB (0%)
    Title                       : Thai PGS
    Language                    : Thai
    Default                     : No
    Forced                      : No
    
    Text #8
    ID                          : 13
    Format                      : PGS
    Muxing mode                 : zlib
    Codec ID                    : S_HDMV/PGS
    Codec ID/Info               : Picture based subtitle format used on BDs/HD-DVDs
    Duration                    : 2 h 7 min
    Bit rate                    : 10.4 kb/s
    Count of elements           : 2496
    Stream size                 : 9.53 MiB (0%)
    Title                       : Thai PGS Yellow
    Language                    : Thai
    Default                     : No
    Forced                      : No
    
    Text #9
    ID                          : 14
    Format                      : PGS
    Muxing mode                 : zlib
    Codec ID                    : S_HDMV/PGS
    Codec ID/Info               : Picture based subtitle format used on BDs/HD-DVDs
    Duration                    : 2 h 7 min
    Bit rate                    : 10.3 kb/s
    Count of elements           : 2496
    Stream size                 : 9.39 MiB (0%)
    Title                       : Thai PGS Out
    Language                    : Thai
    Default                     : No
    Forced                      : No
    
    Text #10
    ID                          : 15
    Format                      : PGS
    Muxing mode                 : zlib
    Codec ID                    : S_HDMV/PGS
    Codec ID/Info               : Picture based subtitle format used on BDs/HD-DVDs
    Duration                    : 1 h 57 min
    Bit rate                    : 6 464 b/s
    Count of elements           : 2100
    Stream size                 : 5.43 MiB (0%)
    Title                       : English
    Language                    : English
    Default                     : No
    Forced                      : No
    
    Menu
    00:00:00.000                : en:Chapter 01
    00:04:19.843                : en:Chapter 02
    00:07:48.927                : en:Chapter 03
    00:11:47.916                : en:Chapter 04
    00:16:56.349                : en:Chapter 05
    00:22:10.663                : en:Chapter 06
    00:29:00.614                : en:Chapter 07
    00:33:25.754                : en:Chapter 08
    00:41:35.493                : en:Chapter 09
    00:47:02.695                : en:Chapter 10
    00:53:08.936                : en:Chapter 11
    00:57:56.807                : en:Chapter 12
    01:05:02.690                : en:Chapter 13
    01:13:07.967                : en:Chapter 14
    01:20:45.591                : en:Chapter 15
    01:27:29.744                : en:Chapter 16
    01:32:48.688                : en:Chapter 17
    01:41:45.850                : en:Chapter 18
    01:49:35.319                : en:Chapter 19
    01:57:58.613                : en:Chapter 20













    Download: cornfile
    http://cornfile.com/09yeaovywsb3
    Download: mekafile
    รอ..อัพ...**ระบบล่ม***

  2. #2
    Senior Member
    สมัครเมื่อ
    Apr 2017
    โพสต์
    206
    Thanks
    0
    Thanked 1 Time in 1 Post
    Download: mekafile
    รอ..อัพ...**mekafile***

  3. #3
    Senior Member
    สมัครเมื่อ
    Jul 2012
    โพสต์
    6,489
    Thanks
    0
    Thanked 0 Times in 0 Posts
    ขอบคุณมากจ้า

  4. #4
    Senior Member
    สมัครเมื่อ
    Apr 2017
    โพสต์
    206
    Thanks
    0
    Thanked 1 Time in 1 Post
    Download: mekafile
    รอ..อัพ...**mekafile***

+ ตอบกลับกระทู้

ข้อมูลกระทู้

Users Browsing this Thread

ในขณะนี้มี 1 ท่านดูกระทู้อยู่. (0 สมาชิกและ 1 ผู้เยี่ยมชม)

     

กฎการโพสต์ข้อความ

  • ท่าน ไม่สามารถ ตั้งกระทู้ใหม่ได้
  • ท่าน ไม่สามารถ ตอบกระทู้ได้
  • ท่าน ไม่สามารถ แนบไฟล์ได้
  • ท่าน ไม่สามารถ แก้ไขข้อความโพสต์ได้
  • BB code สถานะ เปิด
  • Smilies สถานะ เปิด
  • [IMG] สถานะ เปิด
  • HTML สถานะ ปิด