+ ตอบกลับกระทู้
สรุปผลการค้นหา 1 ถึง 4 จากทั้งหมด 4
  1. #1
    Administrators รูปส่วนตัว Duckload.us
    สมัครเมื่อ
    Dec 2010
    โพสต์
    116,994
    Thanks
    7
    Thanked 123,294 Times in 55,256 Posts

    Question [ฝรั่ง]-# Inside Man ล้วงแผนปล้น คนในปริศนา (2006) # 1080p.x264.High-Bitrate [เสียงอังกฤษ Soundtrack DTS 5.1 + พากษ์ไทย AC3 5.1] [บรรยายไทย PGS คมชัด + ENG]-WEB-DL.H.264.1080p. [Modified]-[Soundtrack บรรยายไทย]

    Inside Man ล้วงแผนปล้น คนในปริศนา (2006)

    รายละเอียดไฟล์

    Inside Man ล้วงแผนปล้น คนในปริศนา 1080p เสียงอังกฤษ Soundtrack DTS 5.1 + เสียงไทย AC3 5.1 , ซับไทย PGS อ่านง่ายคมชัด


    คำโปรย

    แผนการเหนือชั้นของฝ่ายผู้ร้ายจะเหนือเมฆขนาดไหน ส่วนฝ่ายตำรวจจะไล่กวดด้วยวิธีใด ตลอดจนใครจะชนะใคร


    เนื้อเรื่องย่อ

    เรื่องของนายตำรวจหน่วยสอบสวน เฟรเซียร์ (เดนเซล วอชิงตัน) ที่โคจรมารับศึกโจรปล้นธนาคารเหลี่ยมจัดอย่าง ดาลตัน (ไคลฟ์ โอเว่น) ในขณะที่สถานการณ์ชิงตัวประกันกำลังดำเนินไปอย่างดุเ ดือด กลับพบเงื่อนงำสำคัญที่ซ่อนพรางอยู่เบื้องหลังโดย เมเดอลีน (โจดี้ ฟอสเตอร์) ตัวแทนฝ่ายธนาคารที่ยื่นหน้าเข้ามาเกี่ยวข้องอย่างมี ปริศนา ทำให้สถานการณ์ที่วุ่นวายนี้ยิ่งเขม็งเกลียวมากขึ้นไ ปอีก


    Credit

    ต้นฉบับไฟล์ : โหลดไฟล์ 1080p.WEB-DL.BluRayRip จากเว็บนอก
    เสียงไทย : by kekoku
    ปล.หากผิดพลาดส่วนไหนขออภัย


    ภาพโปสเตอร์




    ตัวอย่างไฟล์ภาพ ScreenShot





    ตัวอย่างหนัง Trailer







    รายละเอียดไฟล์ MediaInfo
    Quote:

    General
    Unique ID : 312891956881400248142440376484802375844 (0xEB64CC8578282E196D95EA65E48CB0A4)
    Complete name : Inside.Man ล้วงแผนปล้น คนในปริศนา (2006).1080p.WEB-DL.BluRay.x264.DTS.5.1.High.Bitrate.Exo.mkv
    Format : Matroska
    Format version : Version 4 / Version 2
    File size : 12.3 GiB
    Duration : 2 h 8 min
    Overall bit rate : 13.7 Mb/s
    Movie name : Inside.Man.2006.1080p.BluRay.x264
    Encoded date : UTC 2020-01-12 22:12:18
    Writing application : mkvmerge v41.0.0 ('Smarra') 64-bit
    Writing library : libebml v1.3.9 + libmatroska v1.5.2
    Attachments : CronosPro-Bold.ttf / CronosPro-Semibold.ttf / CronosPro-SemiboldIt.ttf

    Video
    ID : 1
    Format : AVC
    Format/Info : Advanced Video Codec
    Format profile : [email protected]
    Format settings : CABAC / 5 Ref Frames
    Format settings, CABAC : Yes
    Format settings, ReFrames : 5 frames
    Codec ID : V_MPEG4/ISO/AVC
    Duration : 2 h 8 min
    Bit rate : 11.6 Mb/s
    Width : 1 920 pixels
    Height : 816 pixels
    Display aspect ratio : 2.35:1
    Frame rate mode : Constant
    Frame rate : 23.976 (24000/1001) FPS
    Color space : YUV
    Chroma subsampling : 4:2:0
    Bit depth : 8 bits
    Scan type : Progressive
    Bits/(Pixel*Frame) : 0.310
    Stream size : 10.4 GiB (85%)
    Title : Inside Man (2006)
    Writing library : x264 core 67 r1163M 3f56e27
    Encoding settings : cabac=1 / ref=5 / deblock=1:-3:-3 / analyse=0x3:0x113 / me=umh / subme=9 / psy_rd=1.3:0.0 / mixed_ref=1 / me_range=64 / chroma_me=1 / trellis=2 / 8x8dct=1 / cqm=0 / deadzone=21,11 / chroma_qp_offset=-2 / threads=6 / nr=0 / decimate=0 / mbaff=0 / bframes=8 / b_pyramid=1 / b_adapt=2 / b_bias=0 / direct=3 / wpredb=1 / keyint=250 / keyint_min=25 / scenecut=40 / rc=2pass / bitrate=11626 / ratetol=1.0 / qcomp=0.60 / qpmin=10 / qpmax=51 / qpstep=4 / cplxblur=20.0 / qblur=0.5 / ip_ratio=1.40 / pb_ratio=1.30 / aq=1:0.80
    Language : English
    Default : Yes
    Forced : No

    Audio #1
    ID : 2
    Format : DTS
    Format/Info : Digital Theater Systems
    Codec ID : A_DTS
    Duration : 2 h 8 min
    Bit rate mode : Constant
    Bit rate : 1 510 kb/s
    Channel(s) : 6 channels
    Channel positions : Front: L C R, Side: L R, LFE
    Sampling rate : 48.0 kHz
    Frame rate : 93.750 FPS (512 SPF)
    Bit depth : 24 bits
    Compression mode : Lossy
    Stream size : 1.36 GiB (11%)
    Title : ENG DTS 5.1
    Language : English
    Default : Yes
    Forced : No

    Audio #2
    ID : 3
    Format : AC-3
    Format/Info : Audio Coding 3
    Codec ID : A_AC3
    Duration : 2 h 8 min
    Bit rate mode : Constant
    Bit rate : 448 kb/s
    Channel(s) : 6 channels
    Channel positions : Front: L C R, Side: L R, LFE
    Sampling rate : 48.0 kHz
    Frame rate : 31.250 FPS (1536 SPF)
    Bit depth : 16 bits
    Compression mode : Lossy
    Stream size : 412 MiB (3%)
    Title : THAI AC3 5.1
    Language : Thai
    Service kind : Complete Main
    Default : No
    Forced : No

    Text #1
    ID : 4
    Format : PGS
    Muxing mode : zlib
    Codec ID : S_HDMV/PGS
    Codec ID/Info : Picture based subtitle format used on BDs/HD-DVDs
    Duration : 2 h 2 min
    Bit rate : 46.5 kb/s
    Count of elements : 3820
    Stream size : 40.6 MiB (0%)
    Title : Thai PGS Sarabun
    Language : Thai
    Default : Yes
    Forced : No

    Text #2
    ID : 5
    Format : PGS
    Muxing mode : zlib
    Codec ID : S_HDMV/PGS
    Codec ID/Info : Picture based subtitle format used on BDs/HD-DVDs
    Duration : 2 h 2 min
    Bit rate : 47.4 kb/s
    Count of elements : 3820
    Stream size : 41.4 MiB (0%)
    Title : Thai PGS Sarabun Under
    Language : Thai
    Default : No
    Forced : No

    Text #3
    ID : 6
    Format : PGS
    Muxing mode : zlib
    Codec ID : S_HDMV/PGS
    Codec ID/Info : Picture based subtitle format used on BDs/HD-DVDs
    Duration : 2 h 2 min
    Bit rate : 53.7 kb/s
    Count of elements : 3820
    Stream size : 46.9 MiB (0%)
    Title : Thai PGS Sarabun Bold
    Language : Thai
    Default : No
    Forced : No

    Text #4
    ID : 7
    Format : PGS
    Muxing mode : zlib
    Codec ID : S_HDMV/PGS
    Codec ID/Info : Picture based subtitle format used on BDs/HD-DVDs
    Duration : 2 h 2 min
    Bit rate : 54.7 kb/s
    Count of elements : 3820
    Stream size : 47.8 MiB (0%)
    Title : Thai PGS Sarabun Bold Under
    Language : Thai
    Default : No
    Forced : No

    Text #5
    ID : 8
    Format : UTF-8
    Codec ID : S_TEXT/UTF8
    Codec ID/Info : UTF-8 Plain Text
    Duration : 2 h 2 min
    Bit rate : 158 b/s
    Count of elements : 1910
    Stream size : 141 KiB (0%)
    Title : Thai SRT
    Language : Thai
    Default : No
    Forced : No

    Text #6
    ID : 9
    Format : UTF-8
    Codec ID : S_TEXT/UTF8
    Codec ID/Info : UTF-8 Plain Text
    Duration : 2 h 2 min
    Bit rate : 88 b/s
    Count of elements : 1958
    Stream size : 79.0 KiB (0%)
    Title : Eng SRT
    Language : English
    Default : No
    Forced : No


    Download: cornfile
    http://cornfile.com/0065pxj8hb06
    Download: mekafile
    รอ..อัพ...**ระบบล่ม***

  2. #2
    Senior Member
    สมัครเมื่อ
    Jul 2012
    โพสต์
    6,977
    Thanks
    0
    Thanked 0 Times in 0 Posts
    ขอบคุณมากจ้า

  3. #3
    Senior Member
    สมัครเมื่อ
    Jun 2014
    โพสต์
    4,331
    Thanks
    0
    Thanked 0 Times in 0 Posts
    ขอบคุณครับ

  4. #4
    Member
    สมัครเมื่อ
    Apr 2020
    โพสต์
    47
    Thanks
    0
    Thanked 0 Times in 0 Posts
    ขอบคุณครับ

+ ตอบกลับกระทู้

ข้อมูลกระทู้

Users Browsing this Thread

ในขณะนี้มี 1 ท่านดูกระทู้อยู่. (0 สมาชิกและ 1 ผู้เยี่ยมชม)

     

กฎการโพสต์ข้อความ

  • ท่าน ไม่สามารถ ตั้งกระทู้ใหม่ได้
  • ท่าน ไม่สามารถ ตอบกระทู้ได้
  • ท่าน ไม่สามารถ แนบไฟล์ได้
  • ท่าน ไม่สามารถ แก้ไขข้อความโพสต์ได้
  • BB code สถานะ เปิด
  • Smilies สถานะ เปิด
  • [IMG] สถานะ เปิด
  • HTML สถานะ ปิด