+ ตอบกลับกระทู้
สรุปผลการค้นหา 1 ถึง 2 จากทั้งหมด 2
  1. #1
    Administrators รูปส่วนตัว Duckload.us
    สมัครเมื่อ
    Dec 2010
    โพสต์
    114,610
    Thanks
    7
    Thanked 120,930 Times in 54,360 Posts

    Question [ฝรั่ง]-[**ใหม่ Blu-ray Remux 1080P**] Robocop (1987) Arrow Video REMASTERED : โรโบคอป [1080p.BluRay.REMUX.AVC.DTS-HD.MA.5.1] [เสียงอังกฤษ DTS-HD.MA 5.1] [บรรยายไทย + อังกฤษ + ซับไทย PGS คมชัด ]




    ตำรวจรายหนึ่งที่ถูกสังหารโดยกลุ่มคนร้าย
    เขาได้ฟื้นคืนชีพขึ้นมาอีกครั้งจากฝีมือของวิทยาศาสต ร์พัฒนาการล้ำลึก
    กลายเป็นไซบอร์กนักปราบอธรรมนาม โรโบคอป...!!!



    Format : Matroska
    Format version : Version 4
    File size : 23.8 GiB
    Duration : 1 h 43 min
    Overall bit rate : 32.9 Mb/s
    Movie name : RoboCop.1987.ARROW.REMASTERED.DC.1080p.BluRay.REMU [email protected]

    Video
    ID : 1
    Format : AVC
    Format/Info : Advanced Video Codec
    Format profile : [email protected]
    Format settings : CABAC / 3 Ref Frames
    Format settings, CABAC : Yes
    Format settings, RefFrames : 3 frames
    Codec ID : V_MPEG4/ISO/AVC
    Duration : 1 h 43 min
    Bit rate mode : Variable
    Bit rate : 29.2 Mb/s
    Maximum bit rate : 38.0 Mb/s
    Width : 1 920 pixels
    Height : 1 080 pixels
    Display aspect ratio : 16:9
    Frame rate mode : Constant
    Frame rate : 23.976 (24000/1001) FPS
    Color space : YUV
    Chroma subsampling : 4:2:0
    Bit depth : 8 bits
    Scan type : Progressive
    Bits/(Pixel*Frame) : 0.588
    Stream size : 21.1 GiB (89%)
    Title : RoboCop.1987.ARROW.REMASTERED.DC.1080p.BluRay.REMU [email protected]
    Default : Yes
    Forced : No
    Color range : Limited
    Color primaries : BT.709
    Transfer characteristics : BT.709
    Matrix coefficients : BT.709

    Audio
    ID : 2
    Format : DTS XLL
    Format/Info : Digital Theater Systems
    Commercial name : DTS-HD Master Audio
    Codec ID : A_DTS
    Duration : 1 h 43 min
    Bit rate mode : Variable
    Bit rate : 3 613 kb/s
    Channel(s) : 6 channels
    Channel layout : C L R Ls Rs LFE
    Sampling rate : 48.0 kHz
    Frame rate : 93.750 FPS (512 SPF)
    Bit depth : 24 bits
    Compression mode : Lossless
    Stream size : 2.61 GiB (11%)
    Title : English DTS-HD.MA 5.1
    Language : English
    Default : Yes
    Forced : No

    Text #1
    ID : 3
    Format : VobSub
    Muxing mode : zlib
    Codec ID : S_VOBSUB
    Codec ID/Info : Picture based subtitle format used on DVDs
    Duration : 1 h 37 min
    Bit rate : 1 830 b/s
    Count of elements : 1189
    Stream size : 1.27 MiB (0%)
    Title : Thai 480P
    Language : Thai
    Default : No
    Forced : No

    Text #2
    ID : 4
    Format : VobSub
    Muxing mode : zlib
    Codec ID : S_VOBSUB
    Codec ID/Info : Picture based subtitle format used on DVDs
    Duration : 1 h 37 min
    Bit rate : 3 241 b/s
    Count of elements : 1189
    Stream size : 2.25 MiB (0%)
    Title : Thai 720P
    Language : Thai
    Default : No
    Forced : No

    Text #3
    ID : 5
    Format : VobSub
    Muxing mode : zlib
    Codec ID : S_VOBSUB
    Codec ID/Info : Picture based subtitle format used on DVDs
    Duration : 1 h 37 min
    Bit rate : 5 303 b/s
    Count of elements : 1189
    Stream size : 3.69 MiB (0%)
    Title : Thai 1080P
    Language : Thai
    Default : No
    Forced : No

    Text #4
    ID : 6
    Format : VobSub
    Muxing mode : zlib
    Codec ID : S_VOBSUB
    Codec ID/Info : Picture based subtitle format used on DVDs
    Duration : 1 h 37 min
    Bit rate : 6 262 b/s
    Count of elements : 1189
    Stream size : 4.35 MiB (0%)
    Title : Thai 1080P BIG
    Language : Thai
    Default : No
    Forced : No

    Text #5
    ID : 7
    Format : VobSub
    Muxing mode : zlib
    Codec ID : S_VOBSUB
    Codec ID/Info : Picture based subtitle format used on DVDs
    Duration : 1 h 37 min
    Bit rate : 5 312 b/s
    Count of elements : 1189
    Stream size : 3.69 MiB (0%)
    Title : Thai 1080P Yellow
    Language : Thai
    Default : No
    Forced : No

    Text #6
    ID : 8
    Format : PGS
    Muxing mode : zlib
    Codec ID : S_HDMV/PGS
    Codec ID/Info : Picture based subtitle format used on BDs/HD-DVDs
    Duration : 1 h 37 min
    Bit rate : 18.6 kb/s
    Count of elements : 2386
    Stream size : 12.9 MiB (0%)
    Title : Thai PGS
    Language : Thai
    Default : Yes
    Forced : No

    Text #7
    ID : 9
    Format : PGS
    Muxing mode : zlib
    Codec ID : S_HDMV/PGS
    Codec ID/Info : Picture based subtitle format used on BDs/HD-DVDs
    Duration : 1 h 37 min
    Bit rate : 21.8 kb/s
    Count of elements : 2386
    Stream size : 15.2 MiB (0%)
    Title : Thai PGS BIG
    Language : Thai
    Default : No
    Forced : No

    Text #8
    ID : 10
    Format : PGS
    Muxing mode : zlib
    Codec ID : S_HDMV/PGS
    Codec ID/Info : Picture based subtitle format used on BDs/HD-DVDs
    Duration : 1 h 37 min
    Bit rate : 18.7 kb/s
    Count of elements : 2386
    Stream size : 13.0 MiB (0%)
    Title : Thai PGS Yellow
    Language : Thai
    Default : No
    Forced : No

    Text #9
    ID : 11
    Format : PGS
    Muxing mode : zlib
    Codec ID : S_HDMV/PGS
    Codec ID/Info : Picture based subtitle format used on BDs/HD-DVDs
    Duration : 1 h 36 min
    Bit rate : 14.3 kb/s
    Count of elements : 2660
    Stream size : 9.84 MiB (0%)
    Title : English PGS
    Language : English
    Default : No
    Forced : No
















    Download: cornfile
    http://cornfile.com/delk14e1w6hj
    Download: mekafile
    รอ..อัพ...**ระบบล่ม***

  2. #2
    Senior Member
    สมัครเมื่อ
    Jun 2014
    โพสต์
    3,811
    Thanks
    0
    Thanked 0 Times in 0 Posts
    ขอบคุณครับ

+ ตอบกลับกระทู้

ข้อมูลกระทู้

Users Browsing this Thread

ในขณะนี้มี 1 ท่านดูกระทู้อยู่. (0 สมาชิกและ 1 ผู้เยี่ยมชม)

     

กฎการโพสต์ข้อความ

  • ท่าน ไม่สามารถ ตั้งกระทู้ใหม่ได้
  • ท่าน ไม่สามารถ ตอบกระทู้ได้
  • ท่าน ไม่สามารถ แนบไฟล์ได้
  • ท่าน ไม่สามารถ แก้ไขข้อความโพสต์ได้
  • BB code สถานะ เปิด
  • Smilies สถานะ เปิด
  • [IMG] สถานะ เปิด
  • HTML สถานะ ปิด