+ ตอบกลับกระทู้
สรุปผลการค้นหา 1 ถึง 4 จากทั้งหมด 4
  1. #1
    Administrators รูปส่วนตัว Duckload.us
    สมัครเมื่อ
    Dec 2010
    โพสต์
    112,535
    Thanks
    7
    Thanked 118,354 Times in 53,601 Posts

    Angry [ฝรั่ง]-[**ใหม่ Blu-ray Remux 1080P**] • Beverly Hills Cop (1984) REMASTERED : โปลิศจับตำรวจ [1080p.BluRay.REMUX.AVC.DTS-HD.MA.5.1] • [พากย์ไทย 5.1 + เสียงอังกฤษ DTS-HD.MA 5.1] • [บรรยายไทย + อังกฤษ] • [เสียงไทย + ซับไทย PGS คมชัด]



    ตำรวจนักสืบจากดีทรอยต์ แอ็กเซล โฟลีย์ (เอ็ดดี้ เมอร์ฟี่) ดีใจมากเมื่อเพื่อนรักจากแคลิฟอร์เนีย มิคกี้ แทนดิโน่ (รับบทโดยเจมส์ รุสโซ่) เดินทางมาเยี่ยม แต่หลังจากที่มิคกี้มาถึงไม่นานนัก เขาก็ถูกฆ่าตายต่อหน้าต่อตาแอกเซล โดยมือปืนที่ชื่อว่าแซค (โจนาธาน แบงค์ส) หลังจากนั้นไม่นาน แอ็กเซลก็เดินทางไปยังเบเวอร์ลี่ ฮิลส์, แคลิฟอร์เนีย เพื่อตามล่าตัวฆาตกรที่ฆ่าเพื่อนของเขา โดยได้รับการติดตามอย่างอย่างใกล้ชิดจากสองตำรวจนักส ืบในกรมตำรวจเบเวอร์ลี่ย์ ฮิลส์ บิลลี่ โรสวู้ด (จัดจ์ ไรโนลด์) และเพื่อนคู่หู จ่านักสืบ จอห์น แท็กการ์ต (จอห์น แอชตั้น) ผู้ซึ่งหัวหน้าของพวกเขา ผู้หมวดแอนดรูว์ โบโกมิล (รอนนี่ ค็อกซ์) เป็นคนมอบหมายงานนี้ให้ เพื่อทำให้แน่ใจว่าตำรวจผิวสีตัวแสบจะไม่ทำเรื่องยุ่ งๆ ให้กับพวกเขาปวดหัวไปมากกว่านี้ ต่อมาแอกเซลก็ไปพบกับเจนนี่ ซัมเมอร์ (ลิซ่า เอลิแบชเชอร์) ผู้ที่ทำงานอยู่ในแกลลอรี่ศิลปะ และด้วยความช่วยเหลือของเธอ แอ็กเซลก็พบว่าแซค, มือปืนที่ฆ่ามิคกี้นั้น ทำงานให้กับเจ้านายของเจนนี่ วิคเตอร์ เมธแลนด์ (สตีเว่น เบอร์คอฟ),เจ้าของแกลลอรี่ และที่สำคัญ เมธแลนด์ยังเป็นเจ้าพ่อค้ายาเสพติดที่ใช้แกลลอรี่แห่ งนี้เป็นฉากบังหน้าธุรกิจผิดกฎหมายของเขา และยังเป็นคนสั่งให้แซคฆ่ามิคกี้ปิดปากโทษฐานที่มันข โมยพันธบัตรของเมธแลนด์ไป และด้วยความช่วยเหลือจากทั้งเจนนี่, บิลลี่ และแท็กการ์ต แอ็กเซลจึงต้องหยุดยั้งไม่ให้ทั้งเมธแลนด์และแซคกำจั ดพวกเขาได้อีกต่อไป...!!!


    Format : Matroska
    Format version : Version 4
    File size : 27.8 GiB
    Duration : 1 h 45 min
    Overall bit rate : 37.9 Mb/s
    Movie name : Beverly.Hills.Cop.1984.REMASTERED.1080p.BluRay.REM [email protected]

    Video
    ID : 1
    Format : AVC
    Format/Info : Advanced Video Codec
    Format profile : [email protected]
    Format settings : CABAC / 4 Ref Frames
    Format settings, CABAC : Yes
    Format settings, RefFrames : 4 frames
    Codec ID : V_MPEG4/ISO/AVC
    Duration : 1 h 45 min
    Bit rate mode : Variable
    Bit rate : 32.7 Mb/s
    Maximum bit rate : 35.0 Mb/s
    Width : 1 920 pixels
    Height : 1 080 pixels
    Display aspect ratio : 16:9
    Frame rate mode : Constant
    Frame rate : 23.976 (24000/1001) FPS
    Color space : YUV
    Chroma subsampling : 4:2:0
    Bit depth : 8 bits
    Scan type : Progressive
    Bits/(Pixel*Frame) : 0.659
    Stream size : 24.0 GiB (86%)
    Title : Beverly.Hills.Cop.1984.REMASTERED.1080p.BluRay.REM [email protected]
    Default : Yes
    Forced : No

    Audio #1
    ID : 2
    Format : DTS XLL
    Format/Info : Digital Theater Systems
    Commercial name : DTS-HD Master Audio
    Codec ID : A_DTS
    Duration : 1 h 45 min
    Bit rate mode : Variable
    Bit rate : 3 965 kb/s
    Channel(s) : 6 channels
    Channel layout : C L R Ls Rs LFE
    Sampling rate : 48.0 kHz
    Frame rate : 93.750 FPS (512 SPF)
    Bit depth : 24 bits
    Compression mode : Lossless
    Stream size : 2.91 GiB (10%)
    Title : English DTS-HD.MA 5.1
    Language : English
    Default : Yes
    Forced : No

    Audio #2
    ID : 3
    Format : AC-3
    Format/Info : Audio Coding 3
    Commercial name : Dolby Digital
    Codec ID : A_AC3
    Duration : 1 h 45 min
    Bit rate mode : Constant
    Bit rate : 640 kb/s
    Channel(s) : 6 channels
    Channel layout : L R C LFE Ls Rs
    Sampling rate : 48.0 kHz
    Frame rate : 31.250 FPS (1536 SPF)
    Bit depth : 16 bits
    Compression mode : Lossy
    Delay relative to video : -9 ms
    Stream size : 481 MiB (2%)
    Title : English 5.1
    Language : English
    Service kind : Complete Main
    Default : No
    Forced : No

    Audio #3
    ID : 4
    Format : AC-3
    Format/Info : Audio Coding 3
    Commercial name : Dolby Digital
    Codec ID : A_AC3
    Duration : 1 h 45 min
    Bit rate mode : Constant
    Bit rate : 448 kb/s
    Channel(s) : 6 channels
    Channel layout : L R C LFE Ls Rs
    Sampling rate : 48.0 kHz
    Frame rate : 31.250 FPS (1536 SPF)
    Bit depth : 16 bits
    Compression mode : Lossy
    Delay relative to video : 1 s 483 ms
    Stream size : 337 MiB (1%)
    Title : Thai 5.1
    Language : Thai
    Service kind : Complete Main
    Default : No
    Forced : No

    Text #1
    ID : 5
    Format : VobSub
    Muxing mode : zlib
    Codec ID : S_VOBSUB
    Codec ID/Info : Picture based subtitle format used on DVDs
    Duration : 1 h 41 min
    Bit rate : 2 081 b/s
    Count of elements : 1075
    Stream size : 1.50 MiB (0%)
    Title : Thai 480P
    Language : Thai
    Default : No
    Forced : No

    Text #2
    ID : 6
    Format : VobSub
    Muxing mode : zlib
    Codec ID : S_VOBSUB
    Codec ID/Info : Picture based subtitle format used on DVDs
    Duration : 1 h 41 min
    Bit rate : 3 704 b/s
    Count of elements : 1075
    Stream size : 2.68 MiB (0%)
    Title : Thai 720P
    Language : Thai
    Default : No
    Forced : No

    Text #3
    ID : 7
    Format : VobSub
    Muxing mode : zlib
    Codec ID : S_VOBSUB
    Codec ID/Info : Picture based subtitle format used on DVDs
    Duration : 1 h 41 min
    Bit rate : 6 048 b/s
    Count of elements : 1075
    Stream size : 4.37 MiB (0%)
    Title : Thai 1080P
    Language : Thai
    Default : No
    Forced : No

    Text #4
    ID : 8
    Format : VobSub
    Muxing mode : zlib
    Codec ID : S_VOBSUB
    Codec ID/Info : Picture based subtitle format used on DVDs
    Duration : 1 h 41 min
    Bit rate : 7 154 b/s
    Count of elements : 1075
    Stream size : 5.17 MiB (0%)
    Title : Thai 1080P BIG
    Language : Thai
    Default : No
    Forced : No

    Text #5
    ID : 9
    Format : VobSub
    Muxing mode : zlib
    Codec ID : S_VOBSUB
    Codec ID/Info : Picture based subtitle format used on DVDs
    Duration : 1 h 41 min
    Bit rate : 6 057 b/s
    Count of elements : 1075
    Stream size : 4.38 MiB (0%)
    Title : Thai 1080P Yellow
    Language : Thai
    Default : No
    Forced : No

    Text #6
    ID : 10
    Format : PGS
    Muxing mode : zlib
    Codec ID : S_HDMV/PGS
    Codec ID/Info : Picture based subtitle format used on BDs/HD-DVDs
    Duration : 1 h 41 min
    Bit rate : 20.5 kb/s
    Count of elements : 2150
    Stream size : 14.8 MiB (0%)
    Title : Thai PGS
    Language : Thai
    Default : Yes
    Forced : No

    Text #7
    ID : 11
    Format : PGS
    Muxing mode : zlib
    Codec ID : S_HDMV/PGS
    Codec ID/Info : Picture based subtitle format used on BDs/HD-DVDs
    Duration : 1 h 41 min
    Bit rate : 24.1 kb/s
    Count of elements : 2150
    Stream size : 17.4 MiB (0%)
    Title : Thai PGS BIG
    Language : Thai
    Default : No
    Forced : No

    Text #8
    ID : 12
    Format : PGS
    Muxing mode : zlib
    Codec ID : S_HDMV/PGS
    Codec ID/Info : Picture based subtitle format used on BDs/HD-DVDs
    Duration : 1 h 41 min
    Bit rate : 20.6 kb/s
    Count of elements : 2150
    Stream size : 14.9 MiB (0%)
    Title : Thai PGS Yellow
    Language : Thai
    Default : No
    Forced : No

    Text #9
    ID : 13
    Format : PGS
    Muxing mode : zlib
    Codec ID : S_HDMV/PGS
    Codec ID/Info : Picture based subtitle format used on BDs/HD-DVDs
    Duration : 1 h 38 min
    Bit rate : 17.8 kb/s
    Count of elements : 2645
    Stream size : 12.5 MiB (0%)
    Title : English PGS
    Language : English
    Default : No
    Forced : No


















    http://cornfile.com/16xj1ppklj5k

  2. #2
    Senior Member
    สมัครเมื่อ
    Jun 2014
    โพสต์
    2,998
    Thanks
    0
    Thanked 0 Times in 0 Posts
    ขอบคุณครับ

  3. #3
    Senior Member
    สมัครเมื่อ
    Jun 2012
    โพสต์
    1,285
    Thanks
    0
    Thanked 1 Time in 1 Post
    ขอบคุณครับ

  4. #4
    Senior Member
    สมัครเมื่อ
    Oct 2012
    โพสต์
    179
    Thanks
    1
    Thanked 0 Times in 0 Posts
    รบกวน up ที่ mekafile ด้วยได้ไหมครับ ทั้ง 3 ภาคเลย
    ขอบคุณครับ

+ ตอบกลับกระทู้

ข้อมูลกระทู้

Users Browsing this Thread

ในขณะนี้มี 1 ท่านดูกระทู้อยู่. (0 สมาชิกและ 1 ผู้เยี่ยมชม)

     

กฎการโพสต์ข้อความ

  • ท่าน ไม่สามารถ ตั้งกระทู้ใหม่ได้
  • ท่าน ไม่สามารถ ตอบกระทู้ได้
  • ท่าน ไม่สามารถ แนบไฟล์ได้
  • ท่าน ไม่สามารถ แก้ไขข้อความโพสต์ได้
  • BB code สถานะ เปิด
  • Smilies สถานะ เปิด
  • [IMG] สถานะ เปิด
  • HTML สถานะ ปิด