โอทิสหนุ่มติ๋มสุดเนิร์ดที่ฉลาดปราดเปรื่องเรื่องเพศ ศึกษาเพราะมีแม่เป็นนักบำบัด ทำให้เมฟเพื่อนจอมขบถเสนอไอเดียตั้งคลินิกบำบัดทางเพ ศในโรงเรียน

Code:
Format                      : Matroska
Format version              : Version 4 / Version 2
File size                   : 15.2 GiB
Duration                    : 51 min 18 s
Overall bit rate            : 42.3 Mb/s
Movie name                  :[email protected]os-Siambit

Video
ID                          : 1
Format                      : AVC
Format/Info                 : Advanced Video Codec
Format profile              : [email protected]
Format settings, CABAC      : Yes
Format settings, ReFrames   : 6 frames
Codec ID                    : V_MPEG4/ISO/AVC
Duration                    : 51 min 18 s
Bit rate                    : 41.0 Mb/s
Width                       : 3 840 pixels
Height                      : 1 920 pixels
Display aspect ratio        : 2.000
Frame rate mode             : Constant
Frame rate                  : 25.000 FPS
Color space                 : YUV
Chroma subsampling          : 4:2:0
Bit depth                   : 8 bits
Scan type                   : Progressive
Bits/(Pixel*Frame)          : 0.223
Stream size                 : 14.7 GiB (97%)
Title                       :[email protected]os-Siambit
Writing library             : x264 core 157 r2969 d4099dd
Encoding settings           : cabac=1 / ref=6 / deblock=1:-3:-3 / analyse=0x3:0x133 / me=umh / subme=10 / psy=1 / psy_rd=1.00:0.15 / mixed_ref=1 / me_range=48 / chroma_me=1 / trellis=2 / 8x8dct=1 / cqm=0 / deadzone=21,11 / fast_pskip=0 / chroma_qp_offset=-3 / threads=12 / lookahead_threads=2 / sliced_threads=0 / nr=0 / decimate=0 / interlaced=0 / bluray_compat=0 / constrained_intra=0 / bframes=8 / b_pyramid=2 / b_adapt=2 / b_bias=0 / direct=3 / weightb=1 / open_gop=0 / weightp=2 / keyint=250 / keyint_min=25 / scenecut=40 / intra_refresh=0 / rc=crf / mbtree=0 / crf=18.0 / qcomp=0.60 / qpmin=0 / qpmax=69 / qpstep=4 / ip_ratio=1.30 / pb_ratio=1.20 / aq=3:0.80
Language                    : English
Default                     : Yes
Forced                      : No

Audio #1
ID                          : 2
Format                      : E-AC-3
Format/Info                 : Enhanced Audio Coding 3
Format settings, Endianness : Big
Codec ID                    : A_EAC3
Duration                    : 51 min 16 s
Bit rate mode               : Constant
Bit rate                    : 640 kb/s
Channel(s)                  : 6 channels
Channel positions           : Front: L C R, Side: L R, LFE
Sampling rate               : 48.0 kHz
Frame rate                  : 187.500 FPS (256 spf)
Compression mode            : Lossy
Stream size                 : 235 MiB (2%)
Title                       : Thai 5.1
Language                    : Thai
Service kind                : Complete Main
Default                     : No
Forced                      : No

Audio #2
ID                          : 3
Format                      : E-AC-3
Format/Info                 : Enhanced Audio Coding 3
Format settings, Endianness : Big
Codec ID                    : A_EAC3
Duration                    : 51 min 16 s
Bit rate mode               : Constant
Bit rate                    : 640 kb/s
Channel(s)                  : 6 channels
Channel positions           : Front: L C R, Side: L R, LFE
Sampling rate               : 48.0 kHz
Frame rate                  : 187.500 FPS (256 spf)
Compression mode            : Lossy
Stream size                 : 235 MiB (2%)
Title                       : English
Language                    : English
Service kind                : Complete Main
Default                     : Yes
Forced                      : No

Text #1
ID                          : 4
Format                      : UTF-8
Codec ID                    : S_TEXT/UTF8
Codec ID/Info               : UTF-8 Plain Text
Duration                    : 49 min 56 s
Bit rate                    : 77 b/s
Count of elements           : 807
Stream size                 : 28.5 KiB (0%)
Language                    : English
Default                     : No
Forced                      : No

Text #2
ID                          : 5
Format                      : UTF-8
Codec ID                    : S_TEXT/UTF8
Codec ID/Info               : UTF-8 Plain Text
Duration                    : 50 min 10 s
Bit rate                    : 83 b/s
Count of elements           : 884
Stream size                 : 30.6 KiB (0%)
Title                       : SDH
Language                    : English
Default                     : No
Forced                      : No

Text #3
ID                          : 6
Format                      : UTF-8
Codec ID                    : S_TEXT/UTF8
Codec ID/Info               : UTF-8 Plain Text
Duration                    : 50 min 11 s
Bit rate                    : 158 b/s
Count of elements           : 749
Stream size                 : 58.3 KiB (0%)
Language                    : Thai
Default                     : No
Forced                      : No

Text #4
ID                          : 7
Format                      : UTF-8
Codec ID                    : S_TEXT/UTF8
Codec ID/Info               : UTF-8 Plain Text
Duration                    : 50 min 11 s
Bit rate                    : 112 b/s
Count of elements           : 723
Stream size                 : 41.2 KiB (0%)
Language                    : Arabic
Default                     : No
Forced                      : No

Text #5
ID                          : 8
Format                      : UTF-8
Codec ID                    : S_TEXT/UTF8
Codec ID/Info               : UTF-8 Plain Text
Duration                    : 48 min 51 s
Bit rate                    : 59 b/s
Count of elements           : 723
Stream size                 : 21.4 KiB (0%)
Language                    : Czech
Default                     : No
Forced                      : No

Text #6
ID                          : 9
Format                      : UTF-8
Codec ID                    : S_TEXT/UTF8
Codec ID/Info               : UTF-8 Plain Text
Duration                    : 48 min 51 s
Bit rate                    : 58 b/s
Count of elements           : 648
Stream size                 : 20.9 KiB (0%)
Language                    : Danish
Default                     : No
Forced                      : No

Text #7
ID                          : 10
Format                      : UTF-8
Codec ID                    : S_TEXT/UTF8
Codec ID/Info               : UTF-8 Plain Text
Duration                    : 50 min 11 s
Bit rate                    : 60 b/s
Count of elements           : 665
Stream size                 : 22.2 KiB (0%)
Language                    : German
Default                     : No
Forced                      : No

Text #8
ID                          : 11
Format                      : UTF-8
Codec ID                    : S_TEXT/UTF8
Codec ID/Info               : UTF-8 Plain Text
Duration                    : 50 min 11 s
Bit rate                    : 102 b/s
Count of elements           : 723
Stream size                 : 37.5 KiB (0%)
Language                    : Greek
Default                     : No
Forced                      : No

Text #9
ID                          : 12
Format                      : UTF-8
Codec ID                    : S_TEXT/UTF8
Codec ID/Info               : UTF-8 Plain Text
Duration                    : 48 min 51 s
Bit rate                    : 59 b/s
Count of elements           : 696
Stream size                 : 21.4 KiB (0%)
Language                    : Spanish
Default                     : No
Forced                      : No

Text #10
ID                          : 13
Format                      : UTF-8
Codec ID                    : S_TEXT/UTF8
Codec ID/Info               : UTF-8 Plain Text
Duration                    : 48 min 51 s
Bit rate                    : 60 b/s
Count of elements           : 698
Stream size                 : 21.6 KiB (0%)
Title                       : European
Language                    : Spanish
Default                     : No
Forced                      : No

Text #11
ID                          : 14
Format                      : UTF-8
Codec ID                    : S_TEXT/UTF8
Codec ID/Info               : UTF-8 Plain Text
Duration                    : 50 min 11 s
Bit rate                    : 58 b/s
Count of elements           : 632
Stream size                 : 21.4 KiB (0%)
Language                    : Finnish
Default                     : No
Forced                      : No

Text #12
ID                          : 15
Format                      : UTF-8
Codec ID                    : S_TEXT/UTF8
Codec ID/Info               : UTF-8 Plain Text
Duration                    : 50 min 12 s
Bit rate                    : 57 b/s
Count of elements           : 597
Stream size                 : 21.1 KiB (0%)
Language                    : French
Default                     : No
Forced                      : No

Text #13
ID                          : 16
Format                      : UTF-8
Codec ID                    : S_TEXT/UTF8
Codec ID/Info               : UTF-8 Plain Text
Duration                    : 49 min 8 s
Bit rate                    : 101 b/s
Count of elements           : 737
Stream size                 : 36.4 KiB (0%)
Language                    : Hebrew
Default                     : No
Forced                      : No

Text #14
ID                          : 17
Format                      : UTF-8
Codec ID                    : S_TEXT/UTF8
Codec ID/Info               : UTF-8 Plain Text
Duration                    : 50 min 11 s
Bit rate                    : 58 b/s
Count of elements           : 674
Stream size                 : 21.5 KiB (0%)
Language                    : Hungarian
Default                     : No
Forced                      : No

Text #15
ID                          : 18
Format                      : UTF-8
Codec ID                    : S_TEXT/UTF8
Codec ID/Info               : UTF-8 Plain Text
Duration                    : 50 min 11 s
Bit rate                    : 62 b/s
Count of elements           : 708
Stream size                 : 22.8 KiB (0%)
Language                    : Indonesian
Default                     : No
Forced                      : No

Text #16
ID                          : 19
Format                      : UTF-8
Codec ID                    : S_TEXT/UTF8
Codec ID/Info               : UTF-8 Plain Text
Duration                    : 50 min 11 s
Bit rate                    : 58 b/s
Count of elements           : 670
Stream size                 : 21.6 KiB (0%)
Language                    : Italian
Default                     : No
Forced                      : No

Text #17
ID                          : 20
Format                      : UTF-8
Codec ID                    : S_TEXT/UTF8
Codec ID/Info               : UTF-8 Plain Text
Duration                    : 48 min 51 s
Bit rate                    : 53 b/s
Count of elements           : 770
Stream size                 : 19.1 KiB (0%)
Language                    : Japanese
Default                     : No
Forced                      : No

Text #18
ID                          : 21
Format                      : UTF-8
Codec ID                    : S_TEXT/UTF8
Codec ID/Info               : UTF-8 Plain Text
Duration                    : 50 min 11 s
Bit rate                    : 76 b/s
Count of elements           : 741
Stream size                 : 28.2 KiB (0%)
Language                    : Korean
Default                     : No
Forced                      : No

Text #19
ID                          : 22
Format                      : UTF-8
Codec ID                    : S_TEXT/UTF8
Codec ID/Info               : UTF-8 Plain Text
Duration                    : 50 min 11 s
Bit rate                    : 53 b/s
Count of elements           : 680
Stream size                 : 19.5 KiB (0%)
Language                    : Norwegian Bokmal
Default                     : No
Forced                      : No

Text #20
ID                          : 23
Format                      : UTF-8
Codec ID                    : S_TEXT/UTF8
Codec ID/Info               : UTF-8 Plain Text
Duration                    : 50 min 11 s
Bit rate                    : 58 b/s
Count of elements           : 653
Stream size                 : 21.4 KiB (0%)
Language                    : Dutch
Default                     : No
Forced                      : No

Text #21
ID                          : 24
Format                      : UTF-8
Codec ID                    : S_TEXT/UTF8
Codec ID/Info               : UTF-8 Plain Text
Duration                    : 48 min 51 s
Bit rate                    : 56 b/s
Count of elements           : 705
Stream size                 : 20.3 KiB (0%)
Language                    : Polish
Default                     : No
Forced                      : No

Text #22
ID                          : 25
Format                      : UTF-8
Codec ID                    : S_TEXT/UTF8
Codec ID/Info               : UTF-8 Plain Text
Duration                    : 50 min 11 s
Bit rate                    : 64 b/s
Count of elements           : 711
Stream size                 : 23.7 KiB (0%)
Language                    : Portuguese
Default                     : No
Forced                      : No

Text #23
ID                          : 26
Format                      : UTF-8
Codec ID                    : S_TEXT/UTF8
Codec ID/Info               : UTF-8 Plain Text
Duration                    : 49 min 7 s
Bit rate                    : 64 b/s
Count of elements           : 702
Stream size                 : 23.3 KiB (0%)
Title                       : Brazilian
Language                    : Portuguese
Default                     : No
Forced                      : No

Text #24
ID                          : 27
Format                      : UTF-8
Codec ID                    : S_TEXT/UTF8
Codec ID/Info               : UTF-8 Plain Text
Duration                    : 50 min 11 s
Bit rate                    : 69 b/s
Count of elements           : 672
Stream size                 : 25.4 KiB (0%)
Language                    : Romanian
Default                     : No
Forced                      : No

Text #25
ID                          : 28
Format                      : UTF-8
Codec ID                    : S_TEXT/UTF8
Codec ID/Info               : UTF-8 Plain Text
Duration                    : 50 min 11 s
Bit rate                    : 96 b/s
Count of elements           : 713
Stream size                 : 35.4 KiB (0%)
Language                    : Russian
Default                     : No
Forced                      : No

Text #26
ID                          : 29
Format                      : UTF-8
Codec ID                    : S_TEXT/UTF8
Codec ID/Info               : UTF-8 Plain Text
Duration                    : 50 min 11 s
Bit rate                    : 62 b/s
Count of elements           : 552
Stream size                 : 23.1 KiB (0%)
Language                    : Swedish
Default                     : No
Forced                      : No

Text #27
ID                          : 30
Format                      : UTF-8
Codec ID                    : S_TEXT/UTF8
Codec ID/Info               : UTF-8 Plain Text
Duration                    : 48 min 51 s
Bit rate                    : 60 b/s
Count of elements           : 655
Stream size                 : 21.7 KiB (0%)
Language                    : Turkish
Default                     : No
Forced                      : No

Text #28
ID                          : 31
Format                      : UTF-8
Codec ID                    : S_TEXT/UTF8
Codec ID/Info               : UTF-8 Plain Text
Duration                    : 50 min 11 s
Bit rate                    : 89 b/s
Count of elements           : 724
Stream size                 : 32.9 KiB (0%)
Language                    : Vietnamese
Default                     : No
Forced                      : No

Text #29
ID                          : 32
Format                      : UTF-8
Codec ID                    : S_TEXT/UTF8
Codec ID/Info               : UTF-8 Plain Text
Duration                    : 50 min 11 s
Bit rate                    : 67 b/s
Count of elements           : 747
Stream size                 : 24.8 KiB (0%)
Title                       : Simplified
Language                    : Chinese
Default                     : No
Forced                      : No

Text #30
ID                          : 33
Format                      : UTF-8
Codec ID                    : S_TEXT/UTF8
Codec ID/Info               : UTF-8 Plain Text
Duration                    : 50 min 11 s
Bit rate                    : 67 b/s
Count of elements           : 722
Stream size                 : 24.8 KiB (0%)
Title                       : Traditional
Language                    : Chinese
Default                     : No
Forced                      : No
















Sex.Education.S02E01.2160p.NF.WEBRip.DDP5.1.TH.x26 4-.mkv - 15.2 GB
Sex.Education.S02E02.2160p.NF.WEBRip.DDP5.1.TH.x26 4.mkv - 13.4 GB
Sex.Education.S02E03.2160p.NF.WEBRip.DDP5.1.TH.x26 4.mkv - 14.7 GB
Sex.Education.S02E04.2160p.NF.WEBRip.DDP5.1.TH.x26 4.mkv - 15.6 GB
Sex.Education.S02E05.2160p.NF.WEBRip.DDP5.1.TH.x26 4-.mkv - 13.7 GB
Sex.Education.S02E06.2160p.NF.WEBRip.DDP5.1.TH.x26 4-.mkv - 19.2 GB
Sex.Education.S02E07.2160p.NF.WEBRip.DDP5.1.TH.x26 4-.mkv - 14.5 GB
Sex.Education.S02E08.END.2160p.NF.WEBRip.DDP5.1.TH .x264.mkv - 17.5 GB