+ ตอบกลับกระทู้
สรุปผลการค้นหา 1 ถึง 4 จากทั้งหมด 4
  1. #1
    Administrators รูปส่วนตัว Duckload.us
    สมัครเมื่อ
    Dec 2010
    โพสต์
    111,263
    Thanks
    7
    Thanked 116,715 Times in 53,142 Posts

    Lightbulb [เกาหลี]-[Netflix] Haechi : แฮชิ: ปกปักรักยุติธรรม [Season 1 Complete] [เสียงเกาหลี]-[บรรยายไทย + อังกฤษ + ภาษาอื่นๆ]-[ซับไทย MASTER From Netflix]-[Soundtrack บรรยายไทย]-WEB-DL.H.264.1080p.





    เรื่องย่อ : ซีรีส์ย้อนยุค บอกเล่าเรื่องราวในสมัยโชซอน ที่เกี่ยวกับคน 4 คนจากต่างที่มาที่แตกต่างกันแต่ได้มาร่วมกันเพื่อที่ จะให้ องค์ชายอีกึม (รับบทโดย จองอิลอู) ขึ้นครองราชย์เป็นพระราชาให้ได้ ซึ่งเป้าหมายนี้เองเป็นจุดเริ่มต้นของ ซาฮอนบู กลุ่มแห่งการฟ้องร้องและเปลี่ยนแปลงเพื่อความยุติธรร มอันประกอบไปด้วย อีกึม เจ้าชายที่ดูดีแต่ไม่ได้เป็นที่รู้จักเพราะมีแม่ที่เ ป็นสามัญชน, ยอจี (รับบทโดย โกอารา) สาวที่เก่งในการสืบเสาะแก้ไขคดีต่างๆอย่างกระตือรือร ้นจนถือว่าเก่งกว่านักสืบผู้ชายซะอีก เธอมีทักษะด้านศิลปะการต่อสู้และพูดได้หลายภาษา, พัคมุนซู (รับบทโดย ควอนยูล) หนุ่มผู้กำลังเตรียมตัวสอบเข้ารับราชการแต่เป็นคนไม่ ค่อยฉลาดและยากลำบากสำหรับเขามากในการสอบผ่านแต่ก็เป ็นคนที่ซื่อสัตย์และอ่อนโยนต่อผู้อื่น และสมาชิกคนสุดท้าย ดัลมูน (รับบทโดย พัคฮุน) นักแสดงละครตลกที่มีชื่อเสียงและเก่งด้านศิลปะการต่อ สู้หลากหลายชนิด

    Code:
    Format                      : Matroska
    Format version              : Version 4 / Version 2
    File size                   : 1.58 GiB
    Duration                    : 59 min 46 s
    Overall bit rate mode       : Variable
    Overall bit rate            : 3 774 kb/s
    
    Video
    ID                          : 1
    Format                      : AVC
    Format/Info                 : Advanced Video Codec
    Format profile              : [email protected]
    Format settings, CABAC      : Yes
    Format settings, ReFrames   : 3 frames
    Codec ID                    : V_MPEG4/ISO/AVC
    Duration                    : 59 min 46 s
    Bit rate mode               : Variable
    Bit rate                    : 3 650 kb/s
    Maximum bit rate            : 5 475 kb/s
    Width                       : 1 920 pixels
    Height                      : 1 080 pixels
    Display aspect ratio        : 16:9
    Frame rate mode             : Constant
    Frame rate                  : 23.976 (24000/1001) FPS
    Color space                 : YUV
    Chroma subsampling          : 4:2:0
    Bit depth                   : 8 bits
    Scan type                   : Progressive
    Bits/(Pixel*Frame)          : 0.073
    Stream size                 : 1.52 GiB (97%)
    Writing library             : x264 core 148 r2715 7e75228
    Encoding settings           : cabac=1 / ref=3 / deblock=1:0:0 / analyse=0x1:0x111 / me=umh / subme=10 / psy=1 / psy_rd=1.00:0.00 / mixed_ref=1 / me_range=24 / chroma_me=1 / trellis=2 / 8x8dct=0 / cqm=0 / deadzone=21,11 / fast_pskip=1 / chroma_qp_offset=-2 / threads=8 / lookahead_threads=1 / sliced_threads=0 / nr=0 / decimate=1 / interlaced=0 / bluray_compat=0 / stitchable=1 / constrained_intra=0 / bframes=2 / b_pyramid=0 / b_adapt=2 / b_bias=0 / direct=3 / weightb=1 / open_gop=0 / weightp=2 / keyint=250 / keyint_min=23 / scenecut=0 / intra_refresh=0 / rc_lookahead=48 / rc=2pass / mbtree=1 / bitrate=3650 / ratetol=1.0 / qcomp=0.50 / qpmin=6 / qpmax=51 / qpstep=4 / cplxblur=20.0 / qblur=0.5 / vbv_maxrate=5475 / vbv_bufsize=7300 / nal_hrd=vbr / filler=0 / ip_ratio=1.40 / aq=1:1.00
    Default                     : Yes
    Forced                      : No
    
    Audio
    ID                          : 2
    Format                      : E-AC-3
    Format/Info                 : Enhanced Audio Coding 3
    Format settings, Endianness : Big
    Codec ID                    : A_EAC3
    Duration                    : 59 min 46 s
    Bit rate mode               : Constant
    Bit rate                    : 128 kb/s
    Channel(s)                  : 2 channels
    Channel positions           : Front: L R
    Sampling rate               : 48.0 kHz
    Frame rate                  : 187.500 FPS (256 spf)
    Compression mode            : Lossy
    Stream size                 : 54.7 MiB (3%)
    Language                    : Korean
    Service kind                : Complete Main
    Default                     : Yes
    Forced                      : No
    
    Text #1
    ID                          : 3
    Format                      : UTF-8
    Codec ID                    : S_TEXT/UTF8
    Codec ID/Info               : UTF-8 Plain Text
    Duration                    : 59 min 18 s
    Bit rate                    : 67 b/s
    Count of elements           : 903
    Stream size                 : 29.3 KiB (0%)
    Language                    : English
    Default                     : Yes
    Forced                      : No
    
    Text #2
    ID                          : 4
    Format                      : UTF-8
    Codec ID                    : S_TEXT/UTF8
    Codec ID/Info               : UTF-8 Plain Text
    Duration                    : 59 min 18 s
    Bit rate                    : 106 b/s
    Count of elements           : 903
    Stream size                 : 46.3 KiB (0%)
    Language                    : Arabic
    Default                     : No
    Forced                      : No
    
    Text #3
    ID                          : 5
    Format                      : UTF-8
    Codec ID                    : S_TEXT/UTF8
    Codec ID/Info               : UTF-8 Plain Text
    Duration                    : 59 min 17 s
    Bit rate                    : 69 b/s
    Count of elements           : 903
    Stream size                 : 30.3 KiB (0%)
    Language                    : German
    Default                     : No
    Forced                      : No
    
    Text #4
    ID                          : 6
    Format                      : UTF-8
    Codec ID                    : S_TEXT/UTF8
    Codec ID/Info               : UTF-8 Plain Text
    Duration                    : 59 min 17 s
    Bit rate                    : 71 b/s
    Count of elements           : 903
    Stream size                 : 31.0 KiB (0%)
    Language                    : French
    Default                     : No
    Forced                      : No
    
    Text #5
    ID                          : 7
    Format                      : UTF-8
    Codec ID                    : S_TEXT/UTF8
    Codec ID/Info               : UTF-8 Plain Text
    Duration                    : 59 min 18 s
    Bit rate                    : 62 b/s
    Count of elements           : 904
    Stream size                 : 27.0 KiB (0%)
    Language                    : Indonesian
    Default                     : No
    Forced                      : No
    
    Text #6
    ID                          : 8
    Format                      : UTF-8
    Codec ID                    : S_TEXT/UTF8
    Codec ID/Info               : UTF-8 Plain Text
    Duration                    : 59 min 18 s
    Bit rate                    : 162 b/s
    Count of elements           : 903
    Stream size                 : 70.4 KiB (0%)
    Language                    : Thai
    Default                     : No
    Forced                      : No
    
    Text #7
    ID                          : 9
    Format                      : UTF-8
    Codec ID                    : S_TEXT/UTF8
    Codec ID/Info               : UTF-8 Plain Text
    Duration                    : 59 min 18 s
    Bit rate                    : 62 b/s
    Count of elements           : 903
    Stream size                 : 27.4 KiB (0%)
    Language                    : Turkish
    Default                     : No
    Forced                      : No
    
    Text #8
    ID                          : 10
    Format                      : UTF-8
    Codec ID                    : S_TEXT/UTF8
    Codec ID/Info               : UTF-8 Plain Text
    Duration                    : 59 min 17 s
    Bit rate                    : 56 b/s
    Count of elements           : 915
    Stream size                 : 24.4 KiB (0%)
    Title                       : Simplified
    Language                    : Chinese
    Default                     : No
    Forced                      : No
    
    Text #9
    ID                          : 11
    Format                      : UTF-8
    Codec ID                    : S_TEXT/UTF8
    Codec ID/Info               : UTF-8 Plain Text
    Duration                    : 59 min 17 s
    Bit rate                    : 56 b/s
    Count of elements           : 904
    Stream size                 : 24.5 KiB (0%)
    Title                       : Traditional
    Language                    : Chinese
    Default                     : No
    Forced                      : No












    1
    http://www.filecondo.com/dl.php?f=K061d21J1aIo
    2
    http://www.filecondo.com/dl.php?f=zaabfa1J1aJo
    3
    http://www.filecondo.com/dl.php?f=2bed081J1aKi
    4
    http://www.filecondo.com/dl.php?f=9b34551J1aLg
    5
    http://www.filecondo.com/dl.php?f=D1cdfe1J1aMg
    6
    http://www.filecondo.com/dl.php?f=5ea8cd1J1aNe
    7
    http://www.filecondo.com/dl.php?f=P190641J1aOa fix
    8
    http://www.filecondo.com/dl.php?f=m588301J1aPa
    9
    http://www.filecondo.com/dl.php?f=K9414b1J1aQ7
    10
    http://www.filecondo.com/dl.php?f=M8f1841J1aRc
    11
    http://www.filecondo.com/dl.php?f=68b8e01J1aS3
    12
    http://www.filecondo.com/dl.php?f=V2b5c31J1aT0
    13
    http://www.filecondo.com/dl.php?f=M9160a1J1aU2
    14
    http://www.filecondo.com/dl.php?f=Cae1bc1J1aUV
    15
    http://www.filecondo.com/dl.php?f=qa5a0e1J1aVV
    16
    http://www.filecondo.com/dl.php?f=Zd345a1J1aWS
    17
    http://www.filecondo.com/dl.php?f=W8ca241J1aXP
    18
    http://www.filecondo.com/dl.php?f=r37e5a1J1aYO
    19
    http://www.filecondo.com/dl.php?f=ka0efe1J1aZN
    20
    http://www.filecondo.com/dl.php?f=T28cf91J1b0K
    21
    http://www.filecondo.com/dl.php?f=Ud0d1b1J1b1L
    22
    http://www.filecondo.com/dl.php?f=48bf481J1b2N
    23
    http://www.filecondo.com/dl.php?f=15177a1J1b3I
    24
    http://www.filecondo.com/dl.php?f=hce8d71J1b4C

  2. #2
    Senior Member
    สมัครเมื่อ
    Aug 2012
    โพสต์
    112
    Thanks
    0
    Thanked 0 Times in 0 Posts
    ขอบคุณมากครับ รบกวนตอนที่ 7 ด้วยครับ โหลดมาแล้วเป็นซ้ำเป็นตอนที่ 6 ครับ

  3. #3
    Administrators รูปส่วนตัว Duckload.us
    สมัครเมื่อ
    Dec 2010
    โพสต์
    111,263
    Thanks
    7
    Thanked 116,715 Times in 53,142 Posts
    อ้างอิง โพสต์ต้นฉบับโดยคุณ sangoun ดูโพสต์
    ขอบคุณมากครับ รบกวนตอนที่ 7 ด้วยครับ โหลดมาแล้วเป็นซ้ำเป็นตอนที่ 6 ครับ
    เรียนแจ้ง แก้ไขแล้วครับ

  4. #4
    Senior Member
    สมัครเมื่อ
    Aug 2012
    โพสต์
    112
    Thanks
    0
    Thanked 0 Times in 0 Posts
    ขอบคุณมากครับ

+ ตอบกลับกระทู้

ข้อมูลกระทู้

Users Browsing this Thread

ในขณะนี้มี 1 ท่านดูกระทู้อยู่. (0 สมาชิกและ 1 ผู้เยี่ยมชม)

     

กฎการโพสต์ข้อความ

  • ท่าน ไม่สามารถ ตั้งกระทู้ใหม่ได้
  • ท่าน ไม่สามารถ ตอบกระทู้ได้
  • ท่าน ไม่สามารถ แนบไฟล์ได้
  • ท่าน ไม่สามารถ แก้ไขข้อความโพสต์ได้
  • BB code สถานะ เปิด
  • Smilies สถานะ เปิด
  • [IMG] สถานะ เปิด
  • HTML สถานะ ปิด