+ ตอบกลับกระทู้
สรุปผลการค้นหา 1 ถึง 3 จากทั้งหมด 3
  1. #1
    Administrators รูปส่วนตัว Duckload.us
    สมัครเมื่อ
    Dec 2010
    โพสต์
    118,387
    Thanks
    7
    Thanked 124,474 Times in 55,703 Posts

    Question [ฝรั่ง]-Charlies Angels (2019) นางฟ้าชาร์ลี -1080p.WEB-DL.H264.AC3 [ไทยโรง ซับไทยมาสเตอร์] -WEB-DL.H.264.1080p. [Modified]-[พากย์ไทย บรรยายไทย]





    เรื่องราวของทีมนางฟ้าที่ประกอบไปด้วย ซาบินา, เอเลน่า และ เจน พวกเธอยังคงทุ่มเททำงานอย่างหนักให้องค์กรลับของ ชาร์ลส์ ทาวน์เซนด์ ผู้ลึกลับ ผู้ซึ่งหน่วยงานสืบสวนและความมั่นคงของเขาได้ขยายตัว ไปยังต่างประเทศ ด้วยสาว ๆ ฝีมือดีที่ฉลาดที่สุดและกล้าหาญที่สุดทั่วโลก ตอนนี้ มีทีมนางฟ้ามากมายภายใต้การชี้แนะของบอสลีย์หลายคนที ่รับงานหิน ๆ ทั่วทุกหนทุกแห่ง



    Duration : 1 h 58 min
    Overall bit rate : 5 001 kb/s
    Encoded date : UTC 2020-02-11 23:06:35
    Writing application : mkvmerge v43.0.0 ('The Quartermaster') 64-bit
    Writing library : libebml v1.3.10 + libmatroska v1.5.2
    Cover : Yes
    Attachments : cover

    Video
    ID : 1
    Format : AVC
    Format/Info : Advanced Video Codec
    Format profile : [email protected]
    Format settings : CABAC / 5 Ref Frames
    Format settings, CABAC : Yes
    Format settings, Reference : 5 frames
    Codec ID : V_MPEG4/ISO/AVC
    Duration : 1 h 58 min
    Bit rate : 4 459 kb/s
    Width : 1 920 pixels
    Height : 798 pixels
    Display aspect ratio : 2.40:1
    Frame rate mode : Constant
    Frame rate : 23.976 (24000/1001) FPS
    Color space : YUV
    Chroma subsampling : 4:2:0
    Bit depth : 8 bits
    Scan type : Progressive
    Bits/(Pixel*Frame) : 0.121
    Stream size : 3.69 GiB (89%)
    Language : English
    Default : Yes
    Forced : No
    Color range : Limited
    Color primaries : BT.709
    Transfer characteristics : BT.709
    Matrix coefficients : BT.709

    Audio
    ID : 8
    Format : AC-3
    Format/Info : Audio Coding 3
    Commercial name : Dolby Digital
    Codec ID : A_AC3
    Duration : 1 h 58 min
    Bit rate mode : Constant
    Bit rate : 384 kb/s
    Channel(s) : 6 channels
    Channel layout : L R C LFE Ls Rs
    Sampling rate : 48.0 kHz
    Frame rate : 31.250 FPS (1536 SPF)
    Compression mode : Lossy
    Stream size : 325 MiB (8%)
    Language : English
    Service kind : Complete Main
    Default : Yes
    Forced : No

    Text #1
    ID : 2
    Format : PGS
    Muxing mode : zlib
    Codec ID : S_HDMV/PGS
    Codec ID/Info : Picture based subtitle format used on BDs/HD-DVDs
    Duration : 1 h 55 min
    Bit rate : 74.6 kb/s
    Count of elements : 4518
    Stream size : 61.7 MiB (1%)
    Title : Gray
    Language : English
    Default : No
    Forced : No

    Text #2
    ID : 3
    Format : PGS
    Muxing mode : zlib
    Codec ID : S_HDMV/PGS
    Codec ID/Info : Picture based subtitle format used on BDs/HD-DVDs
    Duration : 1 h 55 min
    Bit rate : 74.6 kb/s
    Count of elements : 4518
    Stream size : 61.7 MiB (1%)
    Title : White
    Language : English
    Default : No
    Forced : No

    Text #3
    ID : 4
    Format : PGS
    Muxing mode : zlib
    Codec ID : S_HDMV/PGS
    Codec ID/Info : Picture based subtitle format used on BDs/HD-DVDs
    Duration : 1 h 55 min
    Bit rate : 74.6 kb/s
    Count of elements : 4518
    Stream size : 61.7 MiB (1%)
    Title : Yellow
    Language : English
    Default : No
    Forced : No

    Text #4
    ID : 5
    Format : PGS
    Muxing mode : zlib
    Codec ID : S_HDMV/PGS
    Codec ID/Info : Picture based subtitle format used on BDs/HD-DVDs
    Duration : 1 h 57 min
    Bit rate : 43.4 kb/s
    Count of elements : 3320
    Stream size : 36.6 MiB (1%)
    Title : Gray
    Language : Thai
    Default : No
    Forced : No

    Text #5
    ID : 6
    Format : PGS
    Muxing mode : zlib
    Codec ID : S_HDMV/PGS
    Codec ID/Info : Picture based subtitle format used on BDs/HD-DVDs
    Duration : 1 h 57 min
    Bit rate : 43.4 kb/s
    Count of elements : 3320
    Stream size : 36.6 MiB (1%)
    Title : White
    Language : Thai
    Default : Yes
    Forced : No

    Text #6
    ID : 7
    Format : PGS
    Muxing mode : zlib
    Codec ID : S_HDMV/PGS
    Codec ID/Info : Picture based subtitle format used on BDs/HD-DVDs
    Duration : 1 h 57 min
    Bit rate : 43.4 kb/s
    Count of elements : 3320
    Stream size : 36.6 MiB (1%)
    Title : Yellow
    Language : Thai
    Default : No
    Forced : No





    4.1 GB SUB:TH
    http://cornfile.com/f4trn5sbes62

    SUB:TH+THR [เสียงไทยเริ่มที่ 5นาที50]
    4.3 GB http://cornfile.com/qzkl5on1hce9
    4.2 GB http://cornfile.com/8iesyx3ipgzy

    Charlies Angels.2019.1080p.WEB-DL.H264.AC3-DJArt.part1.rar
    http://www.filecondo.com/dl.php?f=Bq0d44c5mEHD
    Charlies Angels.2019.1080p.WEB-DL.H264.AC3-DJArt.part2.rar
    http://www.filecondo.com/dl.php?f=gC578ac5mF6m
    Charlies Angels.2019.1080p.WEB-DL.H264.AC3-DJArt.part3.rar
    http://www.filecondo.com/dl.php?f=9ab27cc5mFoS

  2. The Following 3 Users Say Thank You to Duckload.us For This Useful Post:

    amorn wichian (02-12-2020), NaiWan (02-12-2020), noi54 (02-12-2020)

  3. #2
    Senior Member
    สมัครเมื่อ
    Dec 2013
    โพสต์
    2,295
    Thanks
    4,220
    Thanked 0 Times in 0 Posts
    ขอบคุณครับ...

  4. #3
    Senior Member
    สมัครเมื่อ
    Jun 2014
    โพสต์
    4,621
    Thanks
    0
    Thanked 0 Times in 0 Posts
    ขอบคุณครับ

+ ตอบกลับกระทู้

ข้อมูลกระทู้

Users Browsing this Thread

ในขณะนี้มี 1 ท่านดูกระทู้อยู่. (0 สมาชิกและ 1 ผู้เยี่ยมชม)

     

กฎการโพสต์ข้อความ

  • ท่าน ไม่สามารถ ตั้งกระทู้ใหม่ได้
  • ท่าน ไม่สามารถ ตอบกระทู้ได้
  • ท่าน ไม่สามารถ แนบไฟล์ได้
  • ท่าน ไม่สามารถ แก้ไขข้อความโพสต์ได้
  • BB code สถานะ เปิด
  • Smilies สถานะ เปิด
  • [IMG] สถานะ เปิด
  • HTML สถานะ ปิด