เรื่องย่อ
Raghu, a normal college guy gets dragged into trouble when he falls in love with Lekha and their whirlwind romance changes the course of his life.


Format : Matroska
Format version : Version 4
File size : 4.98 GiB
Duration : 2 h 31 min
Overall bit rate mode : Variable
Overall bit rate : 4 717 kb/s
Encoded date : UTC 2020-02-10 16:37:18
Writing application : mkvmerge v43.0.0 ('The Quartermaster') 64-bit
Writing library : libebml v1.3.10 + libmatroska v1.5.2

Video
ID : 1
Format : AVC
Format/Info : Advanced Video Codec
Format profile : [email protected]
Format settings : CABAC / 1 Ref Frames
Format settings, CABAC : Yes
Format settings, Reference : 1 frame
Codec ID : V_MPEG4/ISO/AVC
Duration : 2 h 31 min
Bit rate mode : Variable
Bit rate : 4 477 kb/s
Maximum bit rate : 13.5 Mb/s
Width : 1 920 pixels
Height : 816 pixels
Display aspect ratio : 2.40:1
Frame rate mode : Constant
Frame rate : 24.000 FPS
Color space : YUV
Chroma subsampling : 4:2:0
Bit depth : 8 bits
Scan type : Progressive
Bits/(Pixel*Frame) : 0.119
Stream size : 4.72 GiB (95%)
Default : Yes
Forced : No

Audio
ID : 2
Format : AC-3
Format/Info : Audio Coding 3
Commercial name : Dolby Digital
Codec ID : A_AC3
Duration : 2 h 31 min
Bit rate mode : Constant
Bit rate : 192 kb/s
Channel(s) : 6 channels
Channel layout : L R C LFE Ls Rs
Sampling rate : 48.0 kHz
Frame rate : 31.250 FPS (1536 SPF)
Compression mode : Lossy
Stream size : 207 MiB (4%)
Title : AC-3 Tamil
Language : Tamil
Service kind : Complete Main
Default : Yes
Forced : No

Text #1
ID : 3
Format : VobSub
Muxing mode : zlib
Codec ID : S_VOBSUB
Codec ID/Info : Picture based subtitle format used on DVDs
Duration : 2 h 27 min
Bit rate : 11.2 kb/s
Count of elements : 1791
Stream size : 11.8 MiB (0%)
Title : Sub Thai 1080p
Language : Thai
Default : No
Forced : No

Text #2
ID : 4
Format : UTF-8
Codec ID : S_TEXT/UTF8
Codec ID/Info : UTF-8 Plain Text
Duration : 2 h 27 min
Bit rate : 124 b/s
Count of elements : 1791
Stream size : 135 KiB (0%)
Title : Sub Thai SRT
Language : Thai
Default : No
Forced : No

Text #3
ID : 5
Format : PGS
Muxing mode : zlib
Codec ID : S_HDMV/PGS
Codec ID/Info : Picture based subtitle format used on BDs/HD-DVDs
Duration : 2 h 27 min
Bit rate : 30.5 kb/s
Count of elements : 3582
Stream size : 32.2 MiB (1%)
Title : PGS Thai
Language : Thai
Default : Yes
Forced : No

Text #4
ID : 6
Format : VobSub
Muxing mode : zlib
Codec ID : S_VOBSUB
Codec ID/Info : Picture based subtitle format used on DVDs
Duration : 2 h 26 min
Bit rate : 14.4 kb/s
Count of elements : 2116
Stream size : 15.0 MiB (0%)
Title : Sub English 1080p
Language : English
Default : No
Forced : No

Text #5
ID : 7
Format : UTF-8
Codec ID : S_TEXT/UTF8
Codec ID/Info : UTF-8 Plain Text
Duration : 2 h 26 min
Bit rate : 62 b/s
Count of elements : 2116
Stream size : 66.9 KiB (0%)
Title : Sub English SRT
Language : English
Default : No
Forced : No

Text #6
ID : 8
Format : PGS
Muxing mode : zlib
Codec ID : S_HDMV/PGS
Codec ID/Info : Picture based subtitle format used on BDs/HD-DVDs
Duration : 2 h 26 min
Bit rate : 34.4 kb/s
Count of elements : 4232
Stream size : 36.0 MiB (1%)
Title : PGS English
Language : English
Default : No
Forced : No



http://cornfile.com/m9banrl3r3sj